MMA Forum - UFC Forums - UFC Results - MMA Videos - View Single Post - UFC Ultimate Knockouts Vol. 5 , 6

View Single Post

Old 05-29-2010, 09:54 AM   #1 (permalink)
Tehboyd
Flyweight
 
Tehboyd's Avatar
 
Join Date: Mar 2010
Posts: 203
Tehboyd Needs A HugTehboyd Needs A HugTehboyd Needs A HugTehboyd Needs A HugTehboyd Needs A HugTehboyd Needs A HugTehboyd Needs A HugTehboyd Needs A HugTehboyd Needs A HugTehboyd Needs A HugTehboyd Needs A Hug
UFC Ultimate Knockouts Vol. 1,2,3,4,5,6,7,8 - HQ

UFC - Ultimate Knockouts Vol. 8



Code:
General

Format                           : AVI
Format/Info                      : Audio Video Interleave
File size                        : 372 MiB
Duration                         : 40mn 46s
Overall bit rate                 : 1 276 Kbps
Writing application              : Nandub v1.0rc2
Writing library                  : Nandub build 1853/release

Video
ID                               : 0
Format                           : MPEG-4 Visual
Format profile                   : Advanced Simple@L5
Format settings, BVOP            : Yes
Format settings, QPel            : No
Format settings, GMC             : No warppoints
Format settings, Matrix          : Default (H.263)
Codec ID                         : XVID
Codec ID/Hint                    : XviD
Duration                         : 40mn 46s
Bit rate                         : 1 133 Kbps
Width                            : 624 pixels
Height                           : 352 pixels
Display aspect ratio             : 16:9
Frame rate                       : 29.970 fps
Resolution                       : 8 bits
Colorimetry                      : 4:2:0
Scan type                        : Progressive
Bits/(Pixel*Frame)               : 0.172
Stream size                      : 330 MiB (89%)
Writing library                  : XviD 1.2.1 (UTC 2008-12-04)

Audio
ID                               : 1
Format                           : MPEG Audio
Format version                   : Version 1
Format profile                   : Layer 3
Format_Settings_Mode             : Joint stereo
Format_Settings_ModeExtension    : MS Stereo
Codec ID                         : 55
Codec ID/Hint                    : MP3
Duration                         : 40mn 46s
Bit rate mode                    : Variable
Bit rate                         : 130 Kbps
Nominal bit rate                 : 128 Kbps
Channel(s)                       : 2 channels
Sampling rate                    : 48.0 KHz
Stream size                      : 37.8 MiB (10%)
Alignment                        : Aligned on interleaves
Interleave, duration             : 24 ms (0.72 video frame)
Interleave, preload duration     : 491 ms

Code:
http://hotfile.com/dl/49781206/3863f01/U_8.avi.html
UFC Ultimate Knockouts Vol. 7





Code:
http://hotfile.com/dl/45663483/440136d/U_V7.part1.rar.html
http://hotfile.com/dl/45663139/f3dcbe2/U_V7.part2.rar.html
http://hotfile.com/dl/45663111/0a40ef1/U_V7.part3.rar.html
http://hotfile.com/dl/45663457/70901f1/U_V7.part4.rar.html
http://hotfile.com/dl/45662588/4a1a08d/U_V7.part5.rar.html

Sorry the 5th part for volume 7 was missing . I apolagize . But it's here now .


UFC Ultimate Knockouts Vol. 6 .





Code:
http://hotfile.com/dl/45371977/227563e/U_V6_part1.rar.html
http://hotfile.com/dl/45372001/0de18e2/U_V6_part2.rar.html
http://hotfile.com/dl/45383628/f066b46/U_V6_part3.rar.html
http://hotfile.com/dl/45380333/9b4f57d/U_V6_part4.rar.html

UFC Ultimate Knockouts Vol. 5





Code:
http://hotfile.com/dl/45396316/4b1c885/U_V5_part1.rar.html
http://hotfile.com/dl/45396334/7bb91f4/U_V5_part2.rar.html
http://hotfile.com/dl/45408594/b24f682/U_V5_part3.rar.html
http://hotfile.com/dl/45406098/3f8d650/U_V5_part4.rar.html

UFC Ultimate Knockouts Vol. 4






Code:
http://hotfile.com/dl/45595217/d545cce/U_V4.part1.rar.html
http://hotfile.com/dl/45598362/1a1c04a/U_V4.part2.rar.html
http://hotfile.com/dl/45608953/6f10865/U_V4.part3.rar.html
http://hotfile.com/dl/45605899/bdadd76/U_V4.part4.rar.html

UFC Ultimate Knockouts Vol. 3






Code:
http://hotfile.com/dl/45659146/2ad8376/U_V3.part1.rar.html
http://hotfile.com/dl/45659060/cd8e4bb/U_V3.part2.rar.html
http://hotfile.com/dl/45658985/5e91da5/U_V3.part3.rar.html
http://hotfile.com/dl/45658490/e2f4b8e/U_V3.part4.rar.html

UFC Ultimate Knockouts Vol. 2






Code:
http://hotfile.com/dl/45768691/5b9ec16/U_V2.part1.rar.html
http://hotfile.com/dl/45768798/f69ecb1/U_V2.part2.rar.html
http://hotfile.com/dl/45769414/8edca3a/U_V2.part3.rar.html
http://hotfile.com/dl/45768200/5732153/U_V2.part4.rar.html


UFC Ultimate Knockouts Vol. 1






Code:
http://hotfile.com/dl/45764971/18e445b/U_V1.part1.rar.html
http://hotfile.com/dl/45765790/a931502/U_V1.part2.rar.html
http://hotfile.com/dl/45765042/95496f2/U_V1.part3.rar.html
http://hotfile.com/dl/45765990/625196e/U_V1.part4.rar.html

These videos are a MUST HAVE for all MMA Fans . Best UFC knockouts , nothing boring , just action .

Enjoy these GREAT Volumes .

Last edited by Tehboyd : 06-22-2010 at 09:04 AM.
Tehboyd is offline   Reply With Quote