MMA Forum - UFC Forums - UFC Results - MMA Videos - View Single Post - TUF 11 Episode 11-12 - DvDRip Xvid - 1 link

View Single Post

Old 06-10-2010, 04:10 AM   #1 (permalink)
Tehboyd
Flyweight
 
Tehboyd's Avatar
 
Join Date: Mar 2010
Posts: 203
Tehboyd Needs A HugTehboyd Needs A HugTehboyd Needs A HugTehboyd Needs A HugTehboyd Needs A HugTehboyd Needs A HugTehboyd Needs A HugTehboyd Needs A HugTehboyd Needs A HugTehboyd Needs A HugTehboyd Needs A Hug
TUF 11 Episode 11-12 - DvDRip Xvid - 1 link



Code:
General

Format                           : AVI
Format/Info                      : Audio Video Interleave
File size                        : 747 MiB
Duration                         : 1h 19mn
Overall bit rate                 : 1 307 Kbps
Writing application              : Nandub v1.0rc2
Writing library                  : Nandub build 1853/release

Video
ID                               : 0
Format                           : MPEG-4 Visual
Format profile                   : Advanced Simple@L5
Format settings, BVOP            : Yes
Format settings, QPel            : No
Format settings, GMC             : No warppoints
Format settings, Matrix          : Default (H.263)
Codec ID                         : XVID
Codec ID/Hint                    : XviD
Duration                         : 1h 19mn
Bit rate                         : 1 164 Kbps
Width                            : 624 pixels
Height                           : 352 pixels
Display aspect ratio             : 16:9
Frame rate                       : 29.970 fps
Resolution                       : 8 bits
Colorimetry                      : 4:2:0
Scan type                        : Progressive
Bits/(Pixel*Frame)               : 0.177
Stream size                      : 665 MiB (89%)
Writing library                  : XviD 1.2.1 (UTC 2008-12-04)

Audio
ID                               : 1
Format                           : MPEG Audio
Format version                   : Version 1
Format profile                   : Layer 3
Format_Settings_Mode             : Joint stereo
Format_Settings_ModeExtension    : MS Stereo
Codec ID                         : 55
Codec ID/Hint                    : MP3
Duration                         : 1h 19mn
Bit rate mode                    : Variable
Bit rate                         : 130 Kbps
Nominal bit rate                 : 128 Kbps
Channel(s)                       : 2 channels
Sampling rate                    : 48.0 KHz
Stream size                      : 74.0 MiB (10%)
Alignment                        : Aligned on interleaves
Interleave, duration             : 24 ms (0.72 video frame)
Interleave, preload duration     : 506 ms


SCREEN



HOTFILE

Code:
http://hotfile.com/dl/47428637/5935e52/T_11_12.avi.html
Tehboyd is offline   Reply With Quote