MMA Forum - UFC Forums - UFC Results - MMA Videos - View Single Post - UFC 115 -Matt Wiman vs. Mac Danzig - Fight mkv

View Single Post

Old 06-13-2010, 02:44 AM   #1 (permalink)
Tehboyd
Flyweight
 
Tehboyd's Avatar
 
Join Date: Mar 2010
Posts: 203
Tehboyd Needs A HugTehboyd Needs A HugTehboyd Needs A HugTehboyd Needs A HugTehboyd Needs A HugTehboyd Needs A HugTehboyd Needs A HugTehboyd Needs A HugTehboyd Needs A HugTehboyd Needs A HugTehboyd Needs A Hug
UFC 115 -Matt Wiman vs. Mac Danzig - Fight mkv



Code:
General

Format                           : Matroska
File size                        : 37.0 MiB
Duration                         : 2mn 36s
Overall bit rate                 : 1 985 Kbps
Encoded date                     : UTC 2010-06-13 01:18:21
Writing application              : mkvmerge v3.2.0 ('Beginnings') built on Feb 12 2010 16:46:17
Writing library                  : libebml v0.7.9 + libmatroska v0.8.1

Video
ID                               : 1
Format                           : AVC
Format/Info                      : Advanced Video Codec
Format profile                   : High@L4.1
Format settings, CABAC           : Yes
Format settings, ReFrames        : 3 frames

Codec ID                         : V_MPEG4/ISO/AVC
Duration                         : 2mn 36s
Bit rate                         : 1 835 Kbps
Nominal bit rate                 : 1 870 Kbps
Width                            : 608 pixels
Height                           : 400 pixels
Display aspect ratio             : 1.520
Frame rate                       : 29.970 fps
Resolution                       : 8 bits
Colorimetry                      : 4:2:0
Scan type                        : Progressive
Bits/(Pixel*Frame)               : 0.252
Stream size                      : 34.2 MiB (92%)
Writing library                  : x264 core 80 r1376M 3feaec2


Audio
ID                               : 2
Format                           : MPEG Audio
Format version                   : Version 1
Format profile                   : Layer 3
Format_Settings_Mode             : Joint stereo
Format_Settings_ModeExtension    : MS Stereo
Codec ID                         : A_MPEG/L3
Codec ID/Hint                    : MP3
Duration                         : 2mn 36s
Bit rate mode                    : Variable
Bit rate                         : 110 Kbps
Nominal bit rate                 : 128 Kbps
Channel(s)                       : 2 channels
Sampling rate                    : 48.0 KHz
Stream size                      : 2.06 MiB (6%)




Code:
http://hotfile.com/dl/48005675/25ed452/MW_MD.mkv.html
Tehboyd is offline   Reply With Quote