MMA Forum - UFC Forums - UFC Results - MMA Videos - View Single Post - UFC 15- Vitor Belfort vs. Randy Couture - Fight

View Single Post

Old 06-15-2010, 12:24 PM   #1 (permalink)
Tehboyd
Flyweight
 
Tehboyd's Avatar
 
Join Date: Mar 2010
Posts: 203
Tehboyd Needs A HugTehboyd Needs A HugTehboyd Needs A HugTehboyd Needs A HugTehboyd Needs A HugTehboyd Needs A HugTehboyd Needs A HugTehboyd Needs A HugTehboyd Needs A HugTehboyd Needs A HugTehboyd Needs A Hug
UFC 15- Vitor Belfort vs. Randy Couture - Fight



Code:
General

Format                           : AVI
Format/Info                      : Audio Video Interleave
File size                        : 115 MiB
Duration                         : 10mn 20s
Overall bit rate                 : 1 552 Kbps
Writing application              : VirtualDubMod 1.5.4.1 (build 2178/release)
Writing library                  : VirtualDubMod build 2178/release

Video
ID                               : 0
Format                           : MPEG-4 Visual
Format profile                   : Simple@L1
Format settings, BVOP            : No
Format settings, QPel            : No
Format settings, GMC             : No warppoints
Format settings, Matrix          : Default (H.263)
Codec ID                         : DIVX
Codec ID/Info                    : Project Mayo
Codec ID/Hint                    : DivX 4
Duration                         : 10mn 20s
Bit rate                         : 1 413 Kbps
Width                            : 400 pixels
Height                           : 304 pixels
Display aspect ratio             : 4:3
Frame rate                       : 29.970 fps
Resolution                       : 8 bits
Colorimetry                      : 4:2:0
Scan type                        : Progressive
Bits/(Pixel*Frame)               : 0.388
Stream size                      : 105 MiB (91%)
Writing library                  : FFmpeg0.4.9-pre1b4718

Audio
ID                               : 1
Format                           : MPEG Audio
Format version                   : Version 1
Format profile                   : Layer 3
Format_Settings_Mode             : Joint stereo
Format_Settings_ModeExtension    : MS Stereo
Codec ID                         : 55
Codec ID/Hint                    : MP3
Duration                         : 10mn 20s
Bit rate mode                    : Constant
Bit rate                         : 128 Kbps
Channel(s)                       : 2 channels
Sampling rate                    : 48.0 KHz
Video delay                      : 2ms
Stream size                      : 9.47 MiB (8%)
Alignment                        : Split accross interleaves
Interleave, duration             : 33 ms (1.00 video frame)
Interleave, preload duration     : 500 ms


Code:
http://hotfile.com/dl/48574176/31ef887/VB_RC.avi.html
Tehboyd is offline   Reply With Quote