MMA Forum - UFC Forums - UFC Results - MMA Videos - View Single Post - UFC 116 -Brock Lesnar vs. Shane Carwin -Fight XviD

View Single Post

Old 07-03-2010, 08:40 AM   #2 (permalink)
Tehboyd
Flyweight
 
Tehboyd's Avatar
 
Join Date: Mar 2010
Posts: 203
Tehboyd Needs A HugTehboyd Needs A HugTehboyd Needs A HugTehboyd Needs A HugTehboyd Needs A HugTehboyd Needs A HugTehboyd Needs A HugTehboyd Needs A HugTehboyd Needs A HugTehboyd Needs A HugTehboyd Needs A Hug
Shane Carwin - Day Program HD 1280x720



Code:
General

Format                           : MPEG-4
Format profile                   : Base Media / Version 2
Codec ID                         : mp42
File size                        : 107 MiB
Duration                         : 7mn 0s
Overall bit rate                 : 2 135 Kbps


Video
ID                               : 2
Format                           : AVC
Format/Info                      : Advanced Video Codec
Format profile                   : High@L3.1
Format settings, CABAC           : Yes
Format settings, ReFrames        : 3 frames
Codec ID                         : avc1
Codec ID/Info                    : Advanced Video Coding
Duration                         : 7mn 0s
Bit rate mode                    : Variable
Bit rate                         : 2 007 Kbps
Maximum bit rate                 : 3 213 Kbps
Width                            : 1 280 pixels
Height                           : 720 pixels
Display aspect ratio             : 16:9
Frame rate mode                  : Constant
Frame rate                       : 29.970 fps
Resolution                       : 8 bits
Colorimetry                      : 4:2:0
Scan type                        : Progressive
Bits/(Pixel*Frame)               : 0.073
Stream size                      : 101 MiB (94%)

Audio
ID                               : 1
Format                           : AAC
Format/Info                      : Advanced Audio Codec
Format version                   : Version 4
Format profile                   : LC
Format settings, SBR             : No
Codec ID                         : 40
Duration                         : 7mn 0s
Bit rate mode                    : Variable
Bit rate                         : 125 Kbps
Maximum bit rate                 : 138 Kbps
Channel(s)                       : 2 channels
Channel positions                : L R
Sampling rate                    : 44.1 KHz
Stream size                      : 6.25 MiB (6%)

Code:
http://hotfile.com/dl/52288899/d1ac29c/SC_Day.avi.html
Tehboyd is offline   Reply With Quote