MMA Forum - UFC Forums - UFC Results - MMA Videos - View Single Post - UFC 116 -Brock Lesnar vs. Shane Carwin -Fight XviD

View Single Post

Old 07-04-2010, 02:18 AM   #13 (permalink)
Tehboyd
Flyweight
 
Tehboyd's Avatar
 
Join Date: Mar 2010
Posts: 203
Tehboyd Needs A HugTehboyd Needs A HugTehboyd Needs A HugTehboyd Needs A HugTehboyd Needs A HugTehboyd Needs A HugTehboyd Needs A HugTehboyd Needs A HugTehboyd Needs A HugTehboyd Needs A HugTehboyd Needs A Hug
UFC 116 -Chris Lytle vs. Matt Brown -Fight XviD



Code:
General

Format                           : AVI
Format/Info                      : Audio Video Interleave
Format profile                   : OpenDML
File size                        : 90.0 MiB
Duration                         : 8mn 24s
Overall bit rate                 : 1 495 Kbps
Writing application              : AVI-Mux GUI 1.17.8.3, Feb 16 201019:42:50

Video
ID                               : 0
Format                           : MPEG-4 Visual
Format profile                   : Advanced Simple@L5
Format settings, BVOP            : Yes
Format settings, QPel            : No
Format settings, GMC             : No warppoints
Format settings, Matrix          : Default (H.263)
Muxing mode                      : Packed bitstream
Codec ID                         : XVID
Codec ID/Hint                    : XviD
Duration                         : 8mn 24s
Bit rate                         : 1 374 Kbps
Width                            : 640 pixels
Height                           : 352 pixels
Display aspect ratio             : 16:9
Frame rate                       : 29.970 fps
Resolution                       : 8 bits
Colorimetry                      : 4:2:0
Scan type                        : Progressive
Bits/(Pixel*Frame)               : 0.204
Stream size                      : 82.7 MiB (92%)
Writing library                  : XviD 1.2.1 (UTC 2008-12-04)

Audio
ID                               : 1
Format                           : MPEG Audio
Format version                   : Version 1
Format profile                   : Layer 3
Format_Settings_Mode             : Joint stereo
Format_Settings_ModeExtension    : MS Stereo
Codec ID                         : 55
Codec ID/Hint                    : MP3
Duration                         : 8mn 24s
Bit rate mode                    : Variable
Bit rate                         : 110 Kbps
Nominal bit rate                 : 128 Kbps
Channel(s)                       : 2 channels
Sampling rate                    : 48.0 KHz
Stream size                      : 6.63 MiB (7%)
Alignment                        : Aligned on interleaves
Interleave, duration             : 24 ms (0.72 video frame)
Interleave, preload duration     : 209 ms




Code:
http://hotfile.com/dl/52431102/d8b0a74/CL_MB.rar.html
Tehboyd is offline   Reply With Quote