MMA Forum - UFC Forums - UFC Results - MMA Videos - View Single Post - MMA Connected.10.07.12. - HDTV XviD

View Single Post

Old 07-16-2010, 02:01 PM   #1 (permalink)
Tehboyd
Flyweight
 
Tehboyd's Avatar
 
Join Date: Mar 2010
Posts: 203
Tehboyd Needs A HugTehboyd Needs A HugTehboyd Needs A HugTehboyd Needs A HugTehboyd Needs A HugTehboyd Needs A HugTehboyd Needs A HugTehboyd Needs A HugTehboyd Needs A HugTehboyd Needs A HugTehboyd Needs A Hug
MMA Connected.10.07.12. - HDTV XviD



Code:
General

Format                           : AVI
Format/Info                      : Audio Video Interleave
File size                        : 186 MiB
Duration                         : 22mn 9s
Overall bit rate                 : 1 171 Kbps


Video
ID                               : 0
Format                           : MPEG-4 Visual
Format profile                   : Advanced Simple@L5
Format settings, BVOP            : Yes
Format settings, QPel            : No
Format settings, GMC             : No warppoints
Format settings, Matrix          : Default (H.263)
Codec ID                         : XVID
Codec ID/Hint                    : XviD
Duration                         : 22mn 9s
Bit rate                         : 1 034 Kbps
Width                            : 624 pixels
Height                           : 352 pixels
Display aspect ratio             : 16:9
Frame rate                       : 29.970 fps
Color space                      : YUV
Chroma subsampling               : 4:2:0
Bit depth                        : 8 bits
Scan type                        : Progressive
Bits/(Pixel*Frame)               : 0.157
Stream size                      : 164 MiB (88%)


Audio
ID                               : 1
Format                           : MPEG Audio
Format version                   : Version 1
Format profile                   : Layer 3
Mode                             : Joint stereo
Codec ID                         : 55
Codec ID/Hint                    : MP3
Duration                         : 22mn 9s
Bit rate mode                    : Variable
Bit rate                         : 124 Kbps
Channel(s)                       : 2 channels
Sampling rate                    : 48.0 KHz
Stream size                      : 19.6 MiB (11%)
Interleave, duration             : 24 ms (0.72 video frame)
Interleave, preload duration     : 505 ms



Code:
http://hotfile.com/dl/55455841/ab0c7e9/M_con.avi.html
Tehboyd is offline   Reply With Quote