MMA Forum - UFC Forums - UFC Results - MMA Videos - View Single Post - UFC 117 - Silva vs. Sonnen Preview - HD 720p

View Single Post

Old 07-22-2010, 11:50 AM   #1 (permalink)
Tehboyd
Flyweight
 
Tehboyd's Avatar
 
Join Date: Mar 2010
Posts: 203
Tehboyd Needs A HugTehboyd Needs A HugTehboyd Needs A HugTehboyd Needs A HugTehboyd Needs A HugTehboyd Needs A HugTehboyd Needs A HugTehboyd Needs A HugTehboyd Needs A HugTehboyd Needs A HugTehboyd Needs A Hug
UFC 117 - Silva vs. Sonnen Preview - HD 720p



Code:
General
Format                           : MPEG-4
Format profile                   : Base Media / Version 2
Codec ID                         : mp42
File size                        : 148 MiB
Duration                         : 9mn 40s
Overall bit rate                 : 2 144 Kbps


Video
ID                               : 2
Format                           : AVC
Format/Info                      : Advanced Video Codec
Format profile                   : High@L3.1
Format settings, CABAC           : Yes
Format settings, ReFrames        : 1 frame
Format settings, GOP             : M=1, N=17
Codec ID                         : avc1
Codec ID/Info                    : Advanced Video Coding
Duration                         : 9mn 40s
Bit rate mode                    : Variable
Bit rate                         : 2 017 Kbps
Maximum bit rate                 : 4 785 Kbps
Width                            : 1 280 pixels
Height                           : 720 pixels
Display aspect ratio             : 16:9
Frame rate mode                  : Constant
Frame rate                       : 29.917 fps
Color space                      : YUV
Chroma subsampling               : 4:2:0
Bit depth                        : 8 bits
Scan type                        : Progressive
Bits/(Pixel*Frame)               : 0.073
Stream size                      : 139 MiB (94%)


Audio
ID                               : 1
Format                           : AAC
Format/Info                      : Advanced Audio Codec
Format version                   : Version 4
Format profile                   : LC
Format settings, SBR             : No
Codec ID                         : 40
Duration                         : 9mn 40s
Bit rate mode                    : Variable
Bit rate                         : 124 Kbps
Maximum bit rate                 : 198 Kbps
Channel(s)                       : 2 channels
Channel positions                : Front: L R
Sampling rate                    : 44.1 KHz
Stream size                      : 8.60 MiB (6%)




Code:
http://hotfile.com/dl/56794745/83d977b/U_Pre.mp4.html
Tehboyd is offline   Reply With Quote