WANDERLEI ''THE AXE MURDERER'' SILVA (Full Career) - MMA Forum - UFC Forums - UFC Results - MMA Videos
Multimedia Videos Videos from events mentioned at MMA Forum.

 
LinkBack Thread Tools Display Modes
post #1 of 5 (permalink) Old 01-03-2010, 08:21 PM Thread Starter
MMA Fanatic
 
Join Date: Oct 2009
Posts: 47
                     
WANDERLEI ''THE AXE MURDERER'' SILVA (Full Career)



Fighter Info (Contains Fight Results)
Code:
http://www.sherdog.com/fighter/Wanderlei-Silva-209

01 - Wanderlei ''The Axe Murderer'' Silva Vs. Dilson Filho (Brazilian Vale Tudo 6)
Code:
http://rapidshare.com/files/328078247/01_-_W.S_v_D.F__C_S_R_.rar
02 - Wanderlei ''The Axe Murderer'' Silva Vs. Marcelo ''Marcelao'' Barbosa (Brazilian Vale Tudo 10)
Code:
http://rapidshare.com/files/327671629/02_-_W.S_v_M.B__C_S_R_.rar
03 - Wanderlei ''The Axe Murderer'' Silva Vs. Sean Bornett (International Vale Tudo Challenge 2)
Code:
http://rapidshare.com/files/328567693/03_-_W.S_v_S.B__C_S_R_.rar
04 - Wanderlei ''The Axe Murderer'' Silva Vs. Egidio ''Sombra Da Noite'' Amaro Da Costa (International Vale Tudo Challenge 2)
Code:
http://rapidshare.com/files/329751835/04_-_W.S_v_E.A.D.C__C_S_R_.rar
05 - Wanderlei ''The Axe Murderer'' Silva Vs. Artur Mariano (International Vale Tudo Challenge 2)
Code:
http://rapidshare.com/files/323170497/05_-_W.S_v_A.M__C_S_R_.part1.rar
http://rapidshare.com/files/323188911/05_-_W.S_v_A.M__C_S_R_.part2.rar
06 - Wanderlei ''The Axe Murderer'' Silva Vs. Mike Van Arsdale (International Vale Tudo Challenge 6)
Code:
http://rapidshare.com/files/328078245/06_-_W.S_v_M.V.A__C_S_R_.rar
07 - Wanderlei ''The Axe Murderer'' Silva Vs. Vitor ''The Phenom'' Belfort (UFC 17.5)
Code:
http://rapidshare.com/files/329449383/07_-_W.S_v_V.B__C_S_R_.rar
08 - Wanderlei ''The Axe Murderer'' Silva Vs. Adriano Serrano (International Vale Tudo Challenge 9)
Code:
http://rapidshare.com/files/328048199/08_-_W.S_v_A.S__C_S_R_.rar
09 - Wanderlei ''The Axe Murderer'' Silva Vs. Eugene ''The Wolf'' Jackson (International Vale Tudo Challenge 10)
Code:
http://rapidshare.com/files/329431224/09_-_W.S_v_E.J__C_S_R_.rar
10 - Wanderlei ''The Axe Murderer'' Silva Vs. Tony Petarra (UFC 20)
Code:
http://rapidshare.com/files/328567689/10_-_W.S_v_T.P__C_S_R_.rar
11 - Wanderlei ''The Axe Murderer'' Silva Vs. Carl Malenko (Pride 7)
Code:
http://rapidshare.com/files/323222086/11_-_W.S_v_C.M__C_S_R_.part1.rar
http://rapidshare.com/files/329872172/11_-_W.S_v_C.M__C_S_R_.part2.rar
12 - Wanderlei ''The Axe Murderer'' Silva Vs. Daijiro Matsui (Pride 8)
Code:
http://rapidshare.com/files/323247905/12_-_W.S_v_D.M__C_S_R_.part1.rar
http://rapidshare.com/files/328970967/12_-_W.S_v_D.M__C_S_R_.part2.rar
13 - Wanderlei ''The Axe Murderer'' Silva Vs. Bob ''Dirty Bob'' Schrijber (Pride Grand Prix 2000, Opening Round)
Code:
http://rapidshare.com/files/329421561/13_-_W.S_v_B.S__C_S_R_.rar
14 - Wanderlei ''The Axe Murderer'' Silva Vs. Tito ''The Huntington Beach Bad By'' Ortiz (UFC 25)
Code:
http://rapidshare.com/files/323271577/14_-_W.S_v_T.O__C_S_R_.part1.rar
http://rapidshare.com/files/323682758/14_-_W.S_v_T.O__C_S_R_.part2.rar
http://rapidshare.com/files/327608148/14_-_W.S_v_T.O__C_S_R_.part3.rar
15 - Wanderlei ''The Axe Murderer'' Silva Vs. Todd ''El Tiburon'' Medina (Mecca World Vale Tudo 2)
Code:
http://rapidshare.com/files/328582892/15_-_W.S_v_T.M__C_S_R_.rar
16 - Wanderlei ''The Axe Murderer'' Silva Vs. Guy ''The Sandman'' Mezger (Pride 10)
Code:
http://rapidshare.com/files/328582888/16_-_W.S_v_G.M__C_S_R_.rar
17 - Wanderlei ''The Axe Murderer'' Silva Vs. Gilbert ''The Hurricane'' Yvel (Pride 11)
Code:
http://rapidshare.com/files/329751831/17_-_W.S_v_G.Y__C_S_R_.rar
18 - Wanderlei ''The Axe Murderer'' Silva Vs. Dan ''Hollywood'' Henderson (Pride 12)
Code:
http://rapidshare.com/files/323715100/18_-_W.S_v_D.H__C_S_R_.part1.rar
http://rapidshare.com/files/328596967/18_-_W.S_v_D.H__C_S_R_.part2.rar
19 - Wanderlei ''The Axe Murderer'' Silva Vs. Kazushi ''The Gracie Hunter'' Sakuraba (Pride 13)
Code:
http://rapidshare.com/files/328048196/19_-_W.S_v_K.S__C_S_R_.rar
20 - Wanderlei ''The Axe Murderer'' Silva Vs. Shungo Oyama (Pride 14)
Code:
http://rapidshare.com/files/329403076/20_-_W.S_v_S.O__C_S_R_.rar
21 - Wanderlei ''The Axe Murderer'' Silva Vs. Kazushi ''The Gracie Hunter'' Sakuraba (Pride 17)
Code:
http://rapidshare.com/files/324414881/21_-_W.S_v_K.S__C_S_R_.part1.rar
http://rapidshare.com/files/329941611/21_-_W.S_v_K.S__C_S_R_.part2.rar
22 - Wanderlei ''The Axe Murderer'' Silva Vs. Alexander ''The Diet Butcher'' Otsuka (Pride 18)
Code:
http://rapidshare.com/files/325097117/22_-_W.S_v_A.O__C_S_R_.part1.rar
http://rapidshare.com/files/325123296/22_-_W.S_v_A.O__C_S_R_.part2.rar
http://rapidshare.com/files/328494629/22_-_W.S_v_A.O__C_S_R_.part3.rar
23 - Wanderlei ''The Axe Murderer'' Silva Vs. Kiyoshi Tamura (Pride 19)
Code:
http://rapidshare.com/files/325338599/23_-_W.S_v_K.T__C_S_R_.part1.rar
http://rapidshare.com/files/327991100/23_-_W.S_v_K.T__C_S_R_.part2.rar
24 - Wanderlei ''The Axe Murderer'' Silva Vs. Mirko ''Cro Cop'' Filipovic (Pride 20)
Code:
http://rapidshare.com/files/325512024/24_-_W.S_v_M.F__C_S_R_.part1.rar
http://rapidshare.com/files/327635055/24_-_W.S_v_M.F__C_S_R_.part2.rar
25 - Wanderlei ''The Axe Murderer'' Silva Vs. Tatsuya Iwasaki (Pride - Shockwave 2002)
Code:
http://rapidshare.com/files/329325106/25_-_W.S_v_T.I__C_S_R_.rar
26 - Wanderlei ''The Axe Murderer'' Silva Vs. Hiromitsu Kanehara (Pride 23)
Code:
http://rapidshare.com/files/329872171/26_-_W.S_v_H.K__C_S_R_.rar
27 - Wanderlei ''The Axe Murderer'' Silva Vs. Kazushi ''The Gracie Hunter'' Sakuraba (Pride - Total Elimination 2003)
Code:
http://rapidshare.com/files/327671626/27_-_W.S_v_K.S__C_S_R_.rar
28 - Wanderlei ''The Axe Murderer'' Silva Vs. Hidehiko Yoshida (Pride - Final Conflict 2003)
Code:
http://rapidshare.com/files/325533112/28_-_W.S_v_H.Y__C_S_R_.part1.rar
http://rapidshare.com/files/329922029/28_-_W.S_v_H.Y__C_S_R_.part2.rar
29 - Wanderlei ''The Axe Murderer'' Silva Vs. Quinton ''Rampage'' Jackson (Pride - Final Conflict 2003)
Code:
http://rapidshare.com/files/325810942/29_-_W.S_v_Q.J__C_S_R_.part1.rar
http://rapidshare.com/files/329411774/29_-_W.S_v_Q.J__C_S_R_.part2.rar
30 - Wanderlei ''The Axe Murderer'' Silva Vs. Ikuhisa ''The Punk'' Minowa (Pride - Bushido 2)
Code:
http://rapidshare.com/files/329941610/30_-_W.S_v_I.M__C_S_R_.rar
31 - Wanderlei ''The Axe Murderer'' Silva Vs. Yuki Kondo (Pride - Final Conflict 2004)
Code:
http://rapidshare.com/files/327695721/31_-_W.S_v_Y.K__C_S_R_.rar
32 - Wanderlei ''The Axe Murderer'' Silva Vs. Quinton ''Rampage'' Jackson (Pride 28)
Code:
http://rapidshare.com/files/325834772/32_-_W.S_v_Q.J__C_S_R_.part1.rar
http://rapidshare.com/files/325914140/32_-_W.S_v_Q.J__C_S_R_.part2.rar
http://rapidshare.com/files/329325104/32_-_W.S_v_Q.J__C_S_R_.part3.rar
33 - Wanderlei ''The Axe Murderer'' Silva Vs. Mark Hunt (Pride - Shockwave 2004)
Code:
http://rapidshare.com/files/325932266/33_-_W.S_v_M.H__C_S_R_.part1.rar
http://rapidshare.com/files/328494011/33_-_W.S_v_M.H__C_S_R_.part2.rar
34 - Wanderlei ''The Axe Murderer'' Silva Vs. Hidehiko Yoshida (Pride - Total Elimination 2005)
Code:
http://rapidshare.com/files/326339839/34_-_W.S_v_H.Y__C_S_R_.part1.rar
http://rapidshare.com/files/326361191/34_-_W.S_v_H.Y__C_S_R_.part2.rar
http://rapidshare.com/files/327635057/34_-_W.S_v_H.Y__C_S_R_.part3.rar
35 - Wanderlei ''The Axe Murderer'' Silva Vs. Kazuhiro Nakamura (Pride - Critical Countdown 2005)
Code:
http://rapidshare.com/files/328970961/35_-_W.S_v_K.N__C_S_R_.rar
36 - Wanderlei ''The Axe Murderer'' Silva Vs. Ricardo ''The Brazilian Tiger'' Arona (Pride - Final Conflict 2005)
Code:
http://rapidshare.com/files/326784666/36_-_W.S_v_R.A__C_S_R_.part1.rar
http://rapidshare.com/files/329440584/36_-_W.S_v_R.A__C_S_R_.part2.rar
37 - Wanderlei ''The Axe Murderer'' Silva Vs. Ricardo ''The Brazilian Tiger'' Arona (Pride - Shockwave 2005)
Code:
http://rapidshare.com/files/326804206/37_-_W.S_v_R.A__C_S_R_.part1.rar
http://rapidshare.com/files/327038915/37_-_W.S_v_R.A__C_S_R_.part2.rar
http://rapidshare.com/files/328478501/37_-_W.S_v_R.A__C_S_R_.part3.rar
38 - Wanderlei ''The Axe Murderer'' Silva Vs. Kazuyuki Fujita (Pride - Critical Countdown Absolute 2006)
Code:
http://rapidshare.com/files/327242003/38_-_W.S_v_K.F__C_S_R_.part1.rar
http://rapidshare.com/files/327695722/38_-_W.S_v_K.F__C_S_R_.part2.rar
39 - Wanderlei ''The Axe Murderer'' Silva Vs. Mirko ''Cro Cop'' Filipovic (Pride - Final Conflict Absolute 2006)
Code:
http://rapidshare.com/files/327991096/39_-_W.S_v_M.F__C_S_R_.rar
40 - Wanderlei ''The Axe Murderer'' Silva Vs. Dan ''Hollywood'' Henderson (Pride 33)
Code:
http://rapidshare.com/files/327264225/40_-_W.S_v_D.H__C_S_R_.part1.rar
http://rapidshare.com/files/327718879/40_-_W.S_v_D.H__C_S_R_.part2.rar
41 - Wanderlei ''The Axe Murderer'' Silva Vs. Chuck ''The Iceman'' Liddell (UFC 79)
Code:
http://rapidshare.com/files/327545140/41_-_W.S_v_C.L__C_S_R_.part1.rar
http://rapidshare.com/files/329922031/41_-_W.S_v_C.L__C_S_R_.part2.rar
42 - Wanderlei ''The Axe Murderer'' Silva Vs. Keith ''The Dean Of Mean'' Jardine (UFC 84)
Code:
http://rapidshare.com/files/327608145/42_-_W.S_v_K.J__C_S_R_.rar
43 - Wanderlei ''The Axe Murderer'' Silva Vs. Quinton ''Rampage'' Jackson (UFC 92)
Code:
http://rapidshare.com/files/327580890/43_-_W.S_v_Q.J__C_S_R_.part1.rar
http://rapidshare.com/files/328596974/43_-_W.S_v_Q.J__C_S_R_.part2.rar
44 - Wanderlei ''The Axe Murderer'' Silva Vs. Rich ''Ace''Franklin (UFC 99)
Code:
http://rapidshare.com/files/327718876/44_-_W.S_v_R.F__C_S_R_.rar
C_S_R is offline  
Sponsored Links
Advertisement
 
post #2 of 5 (permalink) Old 05-23-2010, 08:17 AM
Flyweight
 
Tehboyd's Avatar
 
Join Date: Mar 2010
Posts: 203
                     
RAMPAGE JACKSON vs. WANDERLEI SILVA 3 - FIGHT ! HQ

Rampage Jackson really wanted this fight , because Wanderlei Silva smashed him twice in PRIDE .




http://hotfile.com/dl/44296091/f2f602d/R_W3.avi.html

Enjoy watchin' them fight .
Tehboyd is offline  
post #3 of 5 (permalink) Old 07-04-2010, 04:02 AM
MMA Fanatic
 
Join Date: Jul 2010
Posts: 7
 
pls dont delete the files like djice has done.
i am downloading many of your files, in many topics.
select the option to delete the files after 60days automatically, thats all.all your files will still be there, you wont be charged for SECURED STORAGE. Secured storage needs you to pay to store, not otherwise.
wish djice checked with the faq first before deleting his own files.
vladmir is offline  
post #4 of 5 (permalink) Old 07-07-2010, 06:11 PM
Flyweight
 
Tehboyd's Avatar
 
Join Date: Mar 2010
Posts: 203
                     
Wanderlei Silva vs Rampage Jackson-Fights 1,2,3 XviD

Wanderlei Silva vs. Rampage Jackson 1



Code:
General

Format                           : AVI
Format/Info                      : Audio Video Interleave
File size                        : 43.5 MiB
Duration                         : 4mn 2s
Overall bit rate                 : 1 505 Kbps


Video
ID                               : 0
Format                           : MPEG-4 Visual
Format profile                   : Advanced Simple@L5
Format settings, BVOP            : Yes
Format settings, QPel            : No
Format settings, GMC             : No warppoints
Format settings, Matrix          : Default (MPEG)
Codec ID                         : XVID
Codec ID/Hint                    : XviD
Duration                         : 4mn 2s
Bit rate                         : 1 370 Kbps
Width                            : 512 pixels
Height                           : 384 pixels
Display aspect ratio             : 4:3
Frame rate                       : 29.970 fps
Color space                      : YUV
Chroma subsampling               : 4:2:0
Bit depth                        : 8 bits
Scan type                        : Progressive
Bits/(Pixel*Frame)               : 0.233
Stream size                      : 39.6 MiB (91%)


Audio
ID                               : 1
Format                           : MPEG Audio
Format version                   : Version 1
Format profile                   : Layer 3
Mode                             : Joint stereo
Mode extension                   : MS Stereo
Codec ID                         : 55
Codec ID/Hint                    : MP3
Duration                         : 4mn 2s
Bit rate mode                    : Variable
Bit rate                         : 124 Kbps
Channel(s)                       : 2 channels
Sampling rate                    : 48.0 KHz
Stream size                      : 3.49 MiB (8%)
Alignment                        : Aligned on interleaves
Interleave, duration             : 24 ms (0.72 video frame)
Interleave, preload duration     : 21 ms


Wanderlei Silva vs. Rampage Jackson 2



Code:
General

Format                           : AVI
Format/Info                      : Audio Video Interleave
File size                        : 77.9 MiB
Duration                         : 5mn 49s
Overall bit rate                 : 1 869 Kbps


Video
ID                               : 0
Format                           : MPEG-4 Visual
Format profile                   : Advanced Simple@L5
Format settings, BVOP            : Yes
Format settings, QPel            : No
Format settings, GMC             : No warppoints
Format settings, Matrix          : Default (MPEG)
Codec ID                         : XVID
Codec ID/Hint                    : XviD
Duration                         : 5mn 49s
Bit rate                         : 1 732 Kbps
Width                            : 512 pixels
Height                           : 384 pixels
Display aspect ratio             : 4:3
Frame rate                       : 29.970 fps
Color space                      : YUV
Chroma subsampling               : 4:2:0
Bit depth                        : 8 bits
Scan type                        : Progressive
Bits/(Pixel*Frame)               : 0.294
Stream size                      : 72.2 MiB (93%)


Audio
ID                               : 1
Format                           : MPEG Audio
Format version                   : Version 1
Format profile                   : Layer 3
Mode                             : Joint stereo
Mode extension                   : MS Stereo
Codec ID                         : 55
Codec ID/Hint                    : MP3
Duration                         : 5mn 49s
Bit rate mode                    : Variable
Bit rate                         : 124 Kbps
Channel(s)                       : 2 channels
Sampling rate                    : 48.0 KHz
Stream size                      : 5.13 MiB (7%)
Alignment                        : Aligned on interleaves
Interleave, duration             : 24 ms (0.72 video frame)
Interleave, preload duration     : 21 ms

Wanderlei Silva vs. Rampage Jackson 3




Code:
General

Format                           : AVI
Format/Info                      : Audio Video Interleave
File size                        : 59.3 MiB
Duration                         : 5mn 48s
Overall bit rate                 : 1 431 Kbps



Video
ID                               : 0
Format                           : MPEG-4 Visual
Format profile                   : Advanced Simple@L5
Format settings, BVOP            : Yes
Format settings, QPel            : No
Format settings, GMC             : No warppoints
Format settings, Matrix          : Default (H.263)
Muxing mode                      : Packed bitstream
Codec ID                         : XVID
Codec ID/Hint                    : XviD
Duration                         : 5mn 48s
Bit rate                         : 1 308 Kbps
Width                            : 544 pixels
Height                           : 304 pixels
Display aspect ratio             : 16:9
Frame rate                       : 25.000 fps
Color space                      : YUV
Chroma subsampling               : 4:2:0
Bit depth                        : 8 bits
Scan type                        : Progressive
Bits/(Pixel*Frame)               : 0.316
Stream size                      : 54.3 MiB (91%)


Audio
ID                               : 1
Format                           : MPEG Audio
Format version                   : Version 1
Format profile                   : Layer 3
Mode                             : Joint stereo
Mode extension                   : MS Stereo
Codec ID                         : 55
Codec ID/Hint                    : MP3
Duration                         : 5mn 47s
Bit rate mode                    : Variable
Bit rate                         : 109 Kbps
Nominal bit rate                 : 128 Kbps
Channel(s)                       : 2 channels
Sampling rate                    : 48.0 KHz
Stream size                      : 4.53 MiB (8%)

Interleave, duration             : 24 ms (0.60 video frame)
Interleave, preload duration     : 513 ms

Code:
http://hotfile.com/dl/53294947/de8da68/WS_RJ123.rar.html
Tehboyd is offline  
post #5 of 5 (permalink) Old 07-07-2010, 06:31 PM
Flyweight
 
Tehboyd's Avatar
 
Join Date: Mar 2010
Posts: 203
                     
Wanderlei Silva vs. Keith Jardine- HD 1280x720 AC3



Code:
General

Format                           : Matroska
File size                        : 363 MiB
Duration                         : 13mn 30s
Overall bit rate                 : 3 758 Kbps


Video
ID                               : 1
Format                           : AVC
Format/Info                      : Advanced Video Codec
Format profile                   : High@L4.1
Format settings, CABAC           : Yes
Format settings, ReFrames        : 6 frames
Codec ID                         : V_MPEG4/ISO/AVC
Duration                         : 13mn 30s
Bit rate                         : 3 299 Kbps
Width                            : 1 280 pixels
Height                           : 720 pixels
Display aspect ratio             : 16:9
Frame rate                       : 29.970 fps
Color space                      : YUV
Chroma subsampling               : 4:2:0
Bit depth                        : 8 bits
Scan type                        : Progressive
Bits/(Pixel*Frame)               : 0.119
Stream size                      : 319 MiB (88%)
Title                            : Video

Audio
ID                               : 2
Format                           : AC-3
Format/Info                      : Audio Coding 3
Mode extension                   : CM (complete main)
Codec ID                         : A_AC3
Duration                         : 13mn 30s
Bit rate mode                    : Constant
Bit rate                         : 384 Kbps
Channel(s)                       : 2 channels
Channel positions                : Front: L R
Sampling rate                    : 48.0 KHz
Video delay                      : 22ms
Stream size                      : 37.1 MiB (10%)


Code:
http://hotfile.com/dl/53296621/9d0daac/WS_KJ.mkv.html
Tehboyd is offline  
Reply

Quick Reply
Message:
Options

Register Now



In order to be able to post messages on the MMA Forum - UFC Forums - UFC Results - MMA Videos forums, you must first register.
Please enter your desired user name, your email address and other required details in the form below.

User Name:
Password
Please enter a password for your user account. Note that passwords are case-sensitive.

Password:


Confirm Password:
Email Address
Please enter a valid email address for yourself.

Email Address:
OR

Log-in









Human Verification

In order to verify that you are a human and not a spam bot, please enter the answer into the following box below based on the instructions contained in the graphic.



Currently Active Users Viewing This Thread: 1 (0 members and 1 guests)
 
Thread Tools
Show Printable Version Show Printable Version
Email this Page Email this Page
Display Modes
Linear Mode Linear Mode



Posting Rules  
You may post new threads
You may post replies
You may not post attachments
You may not edit your posts

BB code is On
Smilies are On
[IMG] code is On
HTML code is Off
Trackbacks are Off
Pingbacks are Off
Refbacks are On

 
For the best viewing experience please update your browser to Google Chrome