Best.Of.Pride.S01E06 - MMA Forum - UFC Forums - UFC Results - MMA Videos
Multimedia Videos Videos from events mentioned at MMA Forum.

Reply

Old 02-20-2010, 06:02 AM   #1 (permalink)
Banned
 
Join Date: Oct 2009
Posts: 973
Dj.IcE is on another level nowDj.IcE is on another level nowDj.IcE is on another level nowDj.IcE is on another level nowDj.IcE is on another level nowDj.IcE is on another level nowDj.IcE is on another level nowDj.IcE is on another level nowDj.IcE is on another level nowDj.IcE is on another level nowDj.IcE is on another level now
Best.Of.Pride.S01E06

Best.Of.Pride.S01E06



Format : AVI
Format/Info : Audio Video Interleave
File size : 575 MiB
Duration : 39mn 56s
Overall bit rate : 2 014 Kbps

Video
ID : 0
Format : MPEG-4 Visual
Format settings, BVOP : Yes
Format settings, QPel : No
Format settings, GMC : No warppoints
Format settings, Matrix : Default (H.263)
Muxing mode : Packed bitstream
Codec ID : DX50
Codec ID/Hint : DivX 5
Duration : 39mn 56s
Bit rate : 1 874 Kbps
Width : 512 pixels
Height : 384 pixels
Display aspect ratio : 4:3
Frame rate : 30.000 fps
Resolution : 8 bits
Colorimetry : 4:2:0
Scan type : Progressive
Bits/(Pixel*Frame) : 0.318
Stream size : 535 MiB (93%)
Title : Video
Writing library : DivX 2991

Audio
ID : 1
Format : MPEG Audio
Format version : Version 1
Format profile : Layer 3
Codec ID : 55
Codec ID/Hint : MP3
Duration : 39mn 56s
Bit rate mode : Constant
Bit rate : 128 Kbps
Channel(s) : 2 channels
Sampling rate : 48.0 KHz
Stream size : 36.6 MiB (6%)
Alignment : Split accross interleaves
Interleave, duration : 33 ms (1.00 video frame)
Interleave, preload duration : 500 ms


RAPIDSHARE
Code:
http://rapidshare.com/files/353233221/Best.Of.Pride.S01E06.part1.rar
http://rapidshare.com/files/353233751/Best.Of.Pride.S01E06.part2.rar
http://rapidshare.com/files/353233372/Best.Of.Pride.S01E06.part3.rar
NETLOAD
Code:
http://netload.in/dateigJDdyQ6OaD/Best.Of.Pride.S01E06.part1.rar.htm
http://netload.in/datein5iSZmX63v/Best.Of.Pride.S01E06.part2.rar.htm
http://netload.in/dateilWabQ8q7mL/Best.Of.Pride.S01E06.part3.rar.htm
X7
Code:
http://x7.to/9lcmw4
http://x7.to/tx9n9q
http://x7.to/k4pjez
1 LINK DOWNLOADS

STORAGE-TO
Code:
http://www.storage.to/get/fx0bszn6/Best.Of.Pride.S01E06.avi
X7
Code:
http://x7.to/yfoti3
Dj.IcE is offline   Reply With Quote
Reply



Currently Active Users Viewing This Thread: 1 (0 members and 1 guests)
 
Thread Tools
Display Modes

Posting Rules
You may not post new threads
You may not post replies
You may not post attachments
You may not edit your posts

vB code is On
Smilies are On
[IMG] code is On
HTML code is Off
Trackbacks are Off
Pingbacks are Off
Refbacks are On

VerticalSports
Baseball Forum Golf Forum Boxing Forum Snowmobile Forum
Basketball Forum Soccer Forum MMA Forum PWC Forum
Football Forum Cricket Forum Wrestling Forum ATV Forum
Hockey Forum Volleyball Forum Paintball Forum Snowboarding Forum
Tennis Forum Rugby Forums Lacrosse Forum Skiing Forums
Copyright (C) Verticalscope Inc SEO by vBSEO 3.3.2
Powered by vBulletin Copyright 2000-2009 Jelsoft Enterprises Limited.
vBCredits v1.4 Copyright ©2007, PixelFX Studios