MMA Forum - UFC Forums - UFC Results - MMA Videos

MMA Forum - UFC Forums - UFC Results - MMA Videos (http://www.mmaforum.com/)
-   Multimedia Videos (http://www.mmaforum.com/multimedia-videos/)
-   -   UFC.98.Lyoto.Machida.vs.Rashad.Evans.SDRIP.x264- title match (http://www.mmaforum.com/multimedia-videos/77703-ufc-98-lyoto-machida-vs-rashad-evans-sdrip-x264-title-match.html)

Tehboyd 06-12-2010 03:36 AM

UFC.98.Lyoto.Machida.vs.Rashad.Evans.SDRIP.x264- title match
 


Code:

General

Format                          : Matroska
File size                        : 181 MiB
Duration                        : 21mn 5s
Overall bit rate                : 1 198 Kbps
Encoded date                    : UTC 2009-05-24 04:53:56
Writing application              : mkvmerge v2.8.0 ('The Tree') built on May 14 2009 09:28:39
Writing library                  : libebml v0.7.7 + libmatroska v0.8.1

Video
ID                              : 1
Format                          : AVC
Format/Info                      : Advanced Video Codec
Format profile                  : Main@L3.0
Format settings, CABAC          : Yes
Format settings, ReFrames        : 1 frame
Muxing mode                      : Container profile=Unknown@3.0
Codec ID                        : V_MPEG4/ISO/AVC
Duration                        : 21mn 3s
Bit rate                        : 1 070 Kbps
Nominal bit rate                : 1 091 Kbps
Width                            : 512 pixels
Height                          : 384 pixels
Display aspect ratio            : 4:3
Frame rate                      : 29.970 fps
Resolution                      : 8 bits
Colorimetry                      : 4:2:0
Scan type                        : Progressive
Bits/(Pixel*Frame)              : 0.182
Stream size                      : 161 MiB (89%)
Writing library                  : x264 core 67 r1153M 7b6ce6a


Audio
ID                              : 2
Format                          : MPEG Audio
Format version                  : Version 1
Format profile                  : Layer 3
Format_Settings_Mode            : Joint stereo
Format_Settings_ModeExtension    : MS Stereo
Codec ID                        : A_MPEG/L3
Codec ID/Hint                    : MP3
Duration                        : 21mn 5s
Bit rate mode                    : Variable
Bit rate                        : 105 Kbps
Nominal bit rate                : 128 Kbps
Channel(s)                      : 2 channels
Sampling rate                    : 48.0 KHz
Stream size                      : 15.8 MiB (9%)



Code:

http://hotfile.com/dl/47843665/1da2d34/RE_LM.mkv.html


All times are GMT -4. The time now is 06:59 PM.

Powered by vBulletin Version 3.6.8 , Copyright ©2000 - 2014, Jelsoft Enterprises Ltd.
SEO by vBSEO 3.3.2