UFC.98.Lyoto.Machida.vs.Rashad.Evans.SDRIP.x264- title match - MMA Forum - UFC Forums - UFC Results - MMA Videos
Multimedia Videos Videos from events mentioned at MMA Forum.

LinkBack Thread Tools Display Modes
post #1 of 1 (permalink) Old 06-12-2010, 03:36 AM Thread Starter
Tehboyd's Avatar
Join Date: Mar 2010
Posts: 203
UFC.98.Lyoto.Machida.vs.Rashad.Evans.SDRIP.x264- title match


Format                           : Matroska
File size                        : 181 MiB
Duration                         : 21mn 5s
Overall bit rate                 : 1 198 Kbps
Encoded date                     : UTC 2009-05-24 04:53:56
Writing application              : mkvmerge v2.8.0 ('The Tree') built on May 14 2009 09:28:39
Writing library                  : libebml v0.7.7 + libmatroska v0.8.1

ID                               : 1
Format                           : AVC
Format/Info                      : Advanced Video Codec
Format profile                   : Main@L3.0
Format settings, CABAC           : Yes
Format settings, ReFrames        : 1 frame
Muxing mode                      : Container profile=Unknown@3.0
Codec ID                         : V_MPEG4/ISO/AVC
Duration                         : 21mn 3s
Bit rate                         : 1 070 Kbps
Nominal bit rate                 : 1 091 Kbps
Width                            : 512 pixels
Height                           : 384 pixels
Display aspect ratio             : 4:3
Frame rate                       : 29.970 fps
Resolution                       : 8 bits
Colorimetry                      : 4:2:0
Scan type                        : Progressive
Bits/(Pixel*Frame)               : 0.182
Stream size                      : 161 MiB (89%)
Writing library                  : x264 core 67 r1153M 7b6ce6a

ID                               : 2
Format                           : MPEG Audio
Format version                   : Version 1
Format profile                   : Layer 3
Format_Settings_Mode             : Joint stereo
Format_Settings_ModeExtension    : MS Stereo
Codec ID                         : A_MPEG/L3
Codec ID/Hint                    : MP3
Duration                         : 21mn 5s
Bit rate mode                    : Variable
Bit rate                         : 105 Kbps
Nominal bit rate                 : 128 Kbps
Channel(s)                       : 2 channels
Sampling rate                    : 48.0 KHz
Stream size                      : 15.8 MiB (9%)

Tehboyd is offline  

Quick Reply

Register Now

In order to be able to post messages on the MMA Forum - UFC Forums - UFC Results - MMA Videos forums, you must first register.
Please enter your desired user name, your email address and other required details in the form below.

User Name:
Please enter a password for your user account. Note that passwords are case-sensitive.


Confirm Password:
Email Address
Please enter a valid email address for yourself.

Email Address:


Human Verification

In order to verify that you are a human and not a spam bot, please enter the answer into the following box below based on the instructions contained in the graphic.

Currently Active Users Viewing This Thread: 1 (0 members and 1 guests)
Thread Tools
Show Printable Version Show Printable Version
Email this Page Email this Page
Display Modes
Linear Mode Linear Mode

Posting Rules  
You may post new threads
You may post replies
You may not post attachments
You may not edit your posts

BB code is On
Smilies are On
[IMG] code is On
HTML code is Off
Trackbacks are Off
Pingbacks are Off
Refbacks are On

For the best viewing experience please update your browser to Google Chrome