Strikeforce - Fedor Emelianenko vs. Brett Rogers - Fight Xvi - MMA Forum - UFC Forums - UFC Results - MMA Videos
Multimedia Videos Videos from events mentioned at MMA Forum.

Reply

Old 06-12-2010, 03:27 PM   #1 (permalink)
Flyweight
 
Tehboyd's Avatar
 
Join Date: Mar 2010
Posts: 203
Tehboyd Needs A HugTehboyd Needs A HugTehboyd Needs A HugTehboyd Needs A HugTehboyd Needs A HugTehboyd Needs A HugTehboyd Needs A HugTehboyd Needs A HugTehboyd Needs A HugTehboyd Needs A HugTehboyd Needs A Hug
Strikeforce - Fedor Emelianenko vs. Brett Rogers - Fight Xvi



Code:
General

Format                           : AVI
Format/Info                      : Audio Video Interleave
File size                        : 261 MiB
Duration                         : 21mn 41s
Overall bit rate                 : 1 682 Kbps
Writing application              : Nandub v1.0rc2
Writing library                  : Nandub build 1853/release

Video
ID                               : 0
Format                           : MPEG-4 Visual
Format profile                   : Advanced Simple@L5
Format settings, BVOP            : Yes
Format settings, QPel            : No
Format settings, GMC             : No warppoints
Format settings, Matrix          : Default (H.263)
Codec ID                         : XVID
Codec ID/Hint                    : XviD
Duration                         : 21mn 41s
Bit rate                         : 1 539 Kbps
Width                            : 624 pixels
Height                           : 352 pixels
Display aspect ratio             : 16:9
Frame rate                       : 29.970 fps
Resolution                       : 8 bits
Colorimetry                      : 4:2:0
Scan type                        : Progressive
Bits/(Pixel*Frame)               : 0.234
Stream size                      : 239 MiB (91%)
Writing library                  : XviD 1.3.0.dev55

Audio
ID                               : 1
Format                           : MPEG Audio
Format version                   : Version 1
Format profile                   : Layer 3
Format_Settings_Mode             : Joint stereo
Format_Settings_ModeExtension    : MS Stereo
Codec ID                         : 55
Codec ID/Hint                    : MP3
Duration                         : 21mn 41s
Bit rate mode                    : Variable
Bit rate                         : 132 Kbps
Channel(s)                       : 2 channels
Sampling rate                    : 48.0 KHz
Stream size                      : 20.1 MiB (8%)
Alignment                        : Aligned on interleaves
Interleave, duration             : 24 ms (0.72 video frame)
Interleave, preload duration     : 204 ms



Code:
http://hotfile.com/dl/47939790/9b3eead/FE_BR.avi.html

Last edited by Tehboyd : 06-12-2010 at 03:35 PM.
Tehboyd is offline   Reply With Quote
Reply



Currently Active Users Viewing This Thread: 1 (0 members and 1 guests)
 
Thread Tools
Display Modes

Posting Rules
You may not post new threads
You may not post replies
You may not post attachments
You may not edit your posts

vB code is On
Smilies are On
[IMG] code is On
HTML code is Off
Trackbacks are Off
Pingbacks are Off
Refbacks are On

VerticalSports
Baseball Forum Golf Forum Boxing Forum Snowmobile Forum
Basketball Forum Soccer Forum MMA Forum PWC Forum
Football Forum Cricket Forum Wrestling Forum ATV Forum
Hockey Forum Volleyball Forum Paintball Forum Snowboarding Forum
Tennis Forum Rugby Forums Lacrosse Forum Skiing Forums
Copyright (C) Verticalscope Inc SEO by vBSEO 3.3.2
Powered by vBulletin Copyright © 2000-2009 Jelsoft Enterprises Limited.
vBCredits v1.4 Copyright ©2007, PixelFX Studios