UFC 115 -Matt Wiman vs. Mac Danzig - Fight mkv - MMA Forum - UFC Forums - UFC Results - MMA Videos
Multimedia Videos Videos from events mentioned at MMA Forum.

Reply

Old 06-13-2010, 02:44 AM   #1 (permalink)
Flyweight
 
Tehboyd's Avatar
 
Join Date: Mar 2010
Posts: 203
Tehboyd Needs A HugTehboyd Needs A HugTehboyd Needs A HugTehboyd Needs A HugTehboyd Needs A HugTehboyd Needs A HugTehboyd Needs A HugTehboyd Needs A HugTehboyd Needs A HugTehboyd Needs A HugTehboyd Needs A Hug
UFC 115 -Matt Wiman vs. Mac Danzig - Fight mkv



Code:
General

Format                           : Matroska
File size                        : 37.0 MiB
Duration                         : 2mn 36s
Overall bit rate                 : 1 985 Kbps
Encoded date                     : UTC 2010-06-13 01:18:21
Writing application              : mkvmerge v3.2.0 ('Beginnings') built on Feb 12 2010 16:46:17
Writing library                  : libebml v0.7.9 + libmatroska v0.8.1

Video
ID                               : 1
Format                           : AVC
Format/Info                      : Advanced Video Codec
Format profile                   : High@L4.1
Format settings, CABAC           : Yes
Format settings, ReFrames        : 3 frames

Codec ID                         : V_MPEG4/ISO/AVC
Duration                         : 2mn 36s
Bit rate                         : 1 835 Kbps
Nominal bit rate                 : 1 870 Kbps
Width                            : 608 pixels
Height                           : 400 pixels
Display aspect ratio             : 1.520
Frame rate                       : 29.970 fps
Resolution                       : 8 bits
Colorimetry                      : 4:2:0
Scan type                        : Progressive
Bits/(Pixel*Frame)               : 0.252
Stream size                      : 34.2 MiB (92%)
Writing library                  : x264 core 80 r1376M 3feaec2


Audio
ID                               : 2
Format                           : MPEG Audio
Format version                   : Version 1
Format profile                   : Layer 3
Format_Settings_Mode             : Joint stereo
Format_Settings_ModeExtension    : MS Stereo
Codec ID                         : A_MPEG/L3
Codec ID/Hint                    : MP3
Duration                         : 2mn 36s
Bit rate mode                    : Variable
Bit rate                         : 110 Kbps
Nominal bit rate                 : 128 Kbps
Channel(s)                       : 2 channels
Sampling rate                    : 48.0 KHz
Stream size                      : 2.06 MiB (6%)




Code:
http://hotfile.com/dl/48005675/25ed452/MW_MD.mkv.html
Tehboyd is offline   Reply With Quote
Reply



Currently Active Users Viewing This Thread: 1 (0 members and 1 guests)
 
Thread Tools
Display Modes

Posting Rules
You may not post new threads
You may not post replies
You may not post attachments
You may not edit your posts

vB code is On
Smilies are On
[IMG] code is On
HTML code is Off
Trackbacks are Off
Pingbacks are Off
Refbacks are On

VerticalSports
Baseball Forum Golf Forum Boxing Forum Snowmobile Forum
Basketball Forum Soccer Forum MMA Forum PWC Forum
Football Forum Cricket Forum Wrestling Forum ATV Forum
Hockey Forum Volleyball Forum Paintball Forum Snowboarding Forum
Tennis Forum Rugby Forums Lacrosse Forum Skiing Forums
Copyright (C) Verticalscope Inc SEO by vBSEO 3.3.2
Powered by vBulletin Copyright © 2000-2009 Jelsoft Enterprises Limited.
vBCredits v1.4 Copyright ©2007, PixelFX Studios