MMA Forum - UFC Forums - UFC Results - MMA Videos

MMA Forum - UFC Forums - UFC Results - MMA Videos (http://www.mmaforum.com/)
-   Multimedia Videos (http://www.mmaforum.com/multimedia-videos/)
-   -   UFC 115- Funch vs. Patrik - Fight XviD (http://www.mmaforum.com/multimedia-videos/77754-ufc-115-funch-vs-patrik-fight-xvid.html)

Tehboyd 06-13-2010 03:17 AM

UFC 115- Funch vs. Patrik - Fight XviD
 


Code:

General

Format                          : AVI
Format/Info                      : Audio Video Interleave
File size                        : 112 MiB
Duration                        : 10mn 50s
Overall bit rate                : 1 441 Kbps
Writing library                  : MPlayer

Video
ID                              : 0
Format                          : MPEG-4 Visual
Format profile                  : Advanced Simple@L5
Format settings, BVOP            : Yes
Format settings, QPel            : No
Format settings, GMC            : No warppoints
Format settings, Matrix          : Default (H.263)
Codec ID                        : XVID
Codec ID/Hint                    : XviD
Duration                        : 10mn 50s
Bit rate                        : 1 287 Kbps
Width                            : 624 pixels
Height                          : 352 pixels
Display aspect ratio            : 16:9
Frame rate                      : 29.970 fps
Resolution                      : 8 bits
Colorimetry                      : 4:2:0
Scan type                        : Progressive
Bits/(Pixel*Frame)              : 0.196
Stream size                      : 99.8 MiB (89%)
Writing library                  : XviD 1.3.0.dev55

Audio
ID                              : 1
Format                          : MPEG Audio
Format version                  : Version 1
Format profile                  : Layer 3
Format_Settings_Mode            : Joint stereo
Format_Settings_ModeExtension    : MS Stereo
Codec ID                        : 55
Codec ID/Hint                    : MP3
Duration                        : 10mn 50s
Bit rate mode                    : Variable
Bit rate                        : 140 Kbps
Channel(s)                      : 2 channels
Sampling rate                    : 48.0 KHz
Stream size                      : 10.8 MiB (10%)
Alignment                        : Aligned on interleaves
Interleave, duration            : 24 ms (0.72 video frame)
Interleave, preload duration    : 469 ms




Code:

http://hotfile.com/dl/48010176/56acbf3/Fu_Pt.avi.html


All times are GMT -4. The time now is 12:41 PM.

Powered by vBulletin Version 3.6.8 , Copyright ©2000 - 2014, Jelsoft Enterprises Ltd.
SEO by vBSEO 3.3.2