MMA Forum - UFC Forums - UFC Results - MMA Videos

MMA Forum - UFC Forums - UFC Results - MMA Videos (http://www.mmaforum.com/)
-   Multimedia Videos (http://www.mmaforum.com/multimedia-videos/)
-   -   UFC 115 -Tyson Griffin vs Evan Dunham - Fight XviD (http://www.mmaforum.com/multimedia-videos/77755-ufc-115-tyson-griffin-vs-evan-dunham-fight-xvid.html)

Tehboyd 06-13-2010 03:33 AM

UFC 115 -Tyson Griffin vs Evan Dunham - Fight XviD
 


Code:

General

Format                          : AVI
Format/Info                      : Audio Video Interleave
File size                        : 227 MiB
Duration                        : 20mn 16s
Overall bit rate                : 1 568 Kbps
Writing library                  : MPlayer

Video
ID                              : 0
Format                          : MPEG-4 Visual
Format profile                  : Advanced Simple@L5
Format settings, BVOP            : Yes
Format settings, QPel            : No
Format settings, GMC            : No warppoints
Format settings, Matrix          : Default (H.263)
Codec ID                        : XVID
Codec ID/Hint                    : XviD
Duration                        : 20mn 16s
Bit rate                        : 1 416 Kbps
Width                            : 624 pixels
Height                          : 352 pixels
Display aspect ratio            : 16:9
Frame rate                      : 29.970 fps
Resolution                      : 8 bits
Colorimetry                      : 4:2:0
Scan type                        : Progressive
Bits/(Pixel*Frame)              : 0.215
Stream size                      : 205 MiB (90%)
Writing library                  : XviD 1.3.0.dev55

Audio
ID                              : 1
Format                          : MPEG Audio
Format version                  : Version 1
Format profile                  : Layer 3
Format_Settings_Mode            : Joint stereo
Format_Settings_ModeExtension    : MS Stereo
Codec ID                        : 55
Codec ID/Hint                    : MP3
Duration                        : 20mn 16s
Bit rate mode                    : Variable
Bit rate                        : 139 Kbps
Channel(s)                      : 2 channels
Sampling rate                    : 48.0 KHz
Stream size                      : 20.1 MiB (9%)
Alignment                        : Aligned on interleaves
Interleave, duration            : 24 ms (0.72 video frame)
Interleave, preload duration    : 476 ms




Code:

http://hotfile.com/dl/48011813/8fd684a/Gr_Du.avi.html


All times are GMT -4. The time now is 08:49 AM.

Powered by vBulletin Version 3.6.8 , Copyright ©2000 - 2014, Jelsoft Enterprises Ltd.
SEO by vBSEO 3.3.2