MMA Forum - UFC Forums - UFC Results - MMA Videos

MMA Forum - UFC Forums - UFC Results - MMA Videos (http://www.mmaforum.com/)
-   Multimedia Videos (http://www.mmaforum.com/multimedia-videos/)
-   -   UFC 115 -Mirko CroCop vs. Pat Barry - Fight XviD (http://www.mmaforum.com/multimedia-videos/77763-ufc-115-mirko-crocop-vs-pat-barry-fight-xvid.html)

Tehboyd 06-13-2010 05:23 AM

UFC 115 -Mirko CroCop vs. Pat Barry - Fight XviD
 


Code:

General

Format                          : AVI
Format/Info                      : Audio Video Interleave
Format profile                  : OpenDML
File size                        : 1.47 GiB
Duration                        : 7h 2mn
Overall bit rate                : 499 Kbps
Writing application              : DigiArty AV Encoder Core

Video
ID                              : 0
Format                          : MPEG-4 Visual
Format profile                  : Advanced Simple@L5
Format settings, BVOP            : Yes
Format settings, QPel            : No
Format settings, GMC            : No warppoints
Format settings, Matrix          : Default (MPEG)
Codec ID                        : XVID
Codec ID/Hint                    : XviD
Duration                        : 7h 2mn
Bit rate                        : 439 Kbps
Width                            : 640 pixels
Height                          : 360 pixels
Display aspect ratio            : 16:9
Frame rate                      : 29.970 fps
Resolution                      : 8 bits
Colorimetry                      : 4:2:0
Scan type                        : Progressive
Bits/(Pixel*Frame)              : 0.064
Stream size                      : 1.30 GiB (88%)
Writing library                  : XviD 1.2.1 (UTC 2008-12-04)

Audio
ID                              : 1
Format                          : MPEG Audio
Format version                  : Version 1
Format profile                  : Layer 3
Codec ID                        : 55
Codec ID/Hint                    : MP3
Duration                        : 2h 56mn
Bit rate mode                    : Constant
Bit rate                        : 128 Kbps
Channel(s)                      : 2 channels
Sampling rate                    : 48.0 KHz
Stream size                      : 162 MiB (11%)
Alignment                        : Aligned on interleaves
Interleave, duration            : 24 ms (0.72 video frame)
Interleave, preload duration    : 24 ms




Code:

http://hotfile.com/dl/48371343/dbf160b/great.avi.html


All times are GMT -4. The time now is 07:30 AM.

Powered by vBulletin Version 3.6.8 , Copyright ©2000 - 2014, Jelsoft Enterprises Ltd.
SEO by vBSEO 3.3.2