MMA Forum - UFC Forums - UFC Results - MMA Videos

MMA Forum - UFC Forums - UFC Results - MMA Videos (http://www.mmaforum.com/)
-   Multimedia Videos (http://www.mmaforum.com/multimedia-videos/)
-   -   UFC Versus- Dos Santos vs. Gabriel Gonzaga- Fight XviD (http://www.mmaforum.com/multimedia-videos/77791-ufc-versus-dos-santos-vs-gabriel-gonzaga-fight-xvid.html)

Tehboyd 06-13-2010 02:40 PM

UFC Versus- Dos Santos vs. Gabriel Gonzaga- Fight XviD
 


Code:

General

Format                          : AVI
Format/Info                      : Audio Video Interleave
Format settings                  : rec
File size                        : 41.5 MiB
Duration                        : 5mn 0s
Overall bit rate                : 1 159 Kbps

Video
ID                              : 0
Format                          : MPEG-4 Visual
Format profile                  : Advanced Simple@L5
Format settings, BVOP            : Yes
Format settings, QPel            : No
Format settings, GMC            : No warppoints
Format settings, Matrix          : Default (H.263)
Codec ID                        : XVID
Codec ID/Hint                    : XviD
Duration                        : 5mn 0s
Bit rate                        : 1 026 Kbps
Width                            : 640 pixels
Height                          : 368 pixels
Display aspect ratio            : 16:9
Frame rate                      : 25.000 fps
Resolution                      : 8 bits
Colorimetry                      : 4:2:0
Scan type                        : Progressive
Bits/(Pixel*Frame)              : 0.174
Stream size                      : 36.7 MiB (89%)
Writing library                  : XviD 1.1.2 (UTC 2006-11-01)

Audio
ID                              : 1
Format                          : MPEG Audio
Format version                  : Version 1
Format profile                  : Layer 3
Format_Settings_Mode            : Joint stereo
Format_Settings_ModeExtension    : MS Stereo
Codec ID                        : 55
Codec ID/Hint                    : MP3
Duration                        : 5mn 0s
Bit rate mode                    : Constant
Bit rate                        : 128 Kbps
Channel(s)                      : 2 channels
Sampling rate                    : 44.1 KHz
Video delay                      : 15ms
Stream size                      : 4.58 MiB (11%)
Alignment                        : Split accross interleaves
Interleave, duration            : 2975 ms (74.37 video frames)



Code:

http://hotfile.com/dl/43934740/d4b6b13/JD_3.avi.html


All times are GMT -4. The time now is 06:45 PM.

Powered by vBulletin Version 3.6.8 , Copyright ©2000 - 2014, Jelsoft Enterprises Ltd.
SEO by vBSEO 3.3.2