UFC 104- Cain Velasquez vs. Ben Rothwell - Fight XviD - MMA Forum - UFC Forums - UFC Results - MMA Videos
Multimedia Videos Videos from events mentioned at MMA Forum.

Reply

Old 06-13-2010, 04:36 PM   #1 (permalink)
Flyweight
 
Tehboyd's Avatar
 
Join Date: Mar 2010
Posts: 203
Tehboyd Needs A HugTehboyd Needs A HugTehboyd Needs A HugTehboyd Needs A HugTehboyd Needs A HugTehboyd Needs A HugTehboyd Needs A HugTehboyd Needs A HugTehboyd Needs A HugTehboyd Needs A HugTehboyd Needs A Hug
UFC 104- Cain Velasquez vs. Ben Rothwell - Fight XviD



Code:
General

Format                           : AVI
Format/Info                      : Audio Video Interleave
File size                        : 99.4 MiB
Duration                         : 10mn 28s
Overall bit rate                 : 1 326 Kbps
Writing application              : VirtualDubMod 1.5.10.2 (build 2540/release)
Writing library                  : VirtualDubMod build 2540/release

Video
ID                               : 0
Format                           : MPEG-4 Visual
Format profile                   : Advanced Simple@L4
Format settings, BVOP            : Yes
Format settings, QPel            : No
Format settings, GMC             : No warppoints
Format settings, Matrix          : Default (H.263)
Muxing mode                      : Packed bitstream
Codec ID                         : XVID
Codec ID/Hint                    : XviD
Duration                         : 10mn 28s
Bit rate                         : 1 185 Kbps
Width                            : 624 pixels
Height                           : 352 pixels
Display aspect ratio             : 16:9
Frame rate                       : 25.000 fps
Resolution                       : 8 bits
Colorimetry                      : 4:2:0
Scan type                        : Progressive
Bits/(Pixel*Frame)               : 0.216
Stream size                      : 88.8 MiB (89%)
Writing library                  : XviD 1.2.0.dev49

Audio
ID                               : 1
Format                           : MPEG Audio
Format version                   : Version 1
Format profile                   : Layer 3
Format_Settings_Mode             : Joint stereo
Format_Settings_ModeExtension    : MS Stereo
Codec ID                         : 55
Codec ID/Hint                    : MP3
Duration                         : 10mn 28s
Bit rate mode                    : Variable
Bit rate                         : 128 Kbps
Channel(s)                       : 2 channels
Sampling rate                    : 48.0 KHz
Stream size                      : 9.61 MiB (10%)
Alignment                        : Aligned on interleaves
Interleave, duration             : 24 ms (0.60 video frame)
Interleave, preload duration     : 500 ms



Code:
http://hotfile.com/dl/48215646/518fdad/CV_BR.rar.html
Tehboyd is offline   Reply With Quote
Reply



Currently Active Users Viewing This Thread: 1 (0 members and 1 guests)
 
Thread Tools
Display Modes

Posting Rules
You may not post new threads
You may not post replies
You may not post attachments
You may not edit your posts

vB code is On
Smilies are On
[IMG] code is On
HTML code is Off
Trackbacks are Off
Pingbacks are Off
Refbacks are On

VerticalSports
Baseball Forum Golf Forum Boxing Forum Snowmobile Forum
Basketball Forum Soccer Forum MMA Forum PWC Forum
Football Forum Cricket Forum Wrestling Forum ATV Forum
Hockey Forum Volleyball Forum Paintball Forum Snowboarding Forum
Tennis Forum Rugby Forums Lacrosse Forum Skiing Forums
Copyright (C) Verticalscope Inc SEO by vBSEO 3.3.2
Powered by vBulletin Copyright 2000-2009 Jelsoft Enterprises Limited.
vBCredits v1.4 Copyright ©2007, PixelFX Studios