MMA Forum - UFC Forums - UFC Results - MMA Videos

MMA Forum - UFC Forums - UFC Results - MMA Videos (http://www.mmaforum.com/)
-   Multimedia Videos (http://www.mmaforum.com/multimedia-videos/)
-   -   UFC 15- Vitor Belfort vs. Randy Couture - Fight (http://www.mmaforum.com/multimedia-videos/77843-ufc-15-vitor-belfort-vs-randy-couture-fight.html)

Tehboyd 06-15-2010 11:24 AM

UFC 15- Vitor Belfort vs. Randy Couture - Fight
 


Code:

General

Format                          : AVI
Format/Info                      : Audio Video Interleave
File size                        : 115 MiB
Duration                        : 10mn 20s
Overall bit rate                : 1 552 Kbps
Writing application              : VirtualDubMod 1.5.4.1 (build 2178/release)
Writing library                  : VirtualDubMod build 2178/release

Video
ID                              : 0
Format                          : MPEG-4 Visual
Format profile                  : Simple@L1
Format settings, BVOP            : No
Format settings, QPel            : No
Format settings, GMC            : No warppoints
Format settings, Matrix          : Default (H.263)
Codec ID                        : DIVX
Codec ID/Info                    : Project Mayo
Codec ID/Hint                    : DivX 4
Duration                        : 10mn 20s
Bit rate                        : 1 413 Kbps
Width                            : 400 pixels
Height                          : 304 pixels
Display aspect ratio            : 4:3
Frame rate                      : 29.970 fps
Resolution                      : 8 bits
Colorimetry                      : 4:2:0
Scan type                        : Progressive
Bits/(Pixel*Frame)              : 0.388
Stream size                      : 105 MiB (91%)
Writing library                  : FFmpeg0.4.9-pre1b4718

Audio
ID                              : 1
Format                          : MPEG Audio
Format version                  : Version 1
Format profile                  : Layer 3
Format_Settings_Mode            : Joint stereo
Format_Settings_ModeExtension    : MS Stereo
Codec ID                        : 55
Codec ID/Hint                    : MP3
Duration                        : 10mn 20s
Bit rate mode                    : Constant
Bit rate                        : 128 Kbps
Channel(s)                      : 2 channels
Sampling rate                    : 48.0 KHz
Video delay                      : 2ms
Stream size                      : 9.47 MiB (8%)
Alignment                        : Split accross interleaves
Interleave, duration            : 33 ms (1.00 video frame)
Interleave, preload duration    : 500 ms



Code:

http://hotfile.com/dl/48574176/31ef887/VB_RC.avi.html


All times are GMT -4. The time now is 03:59 PM.

Powered by vBulletin Version 3.6.8 , Copyright ©2000 - 2014, Jelsoft Enterprises Ltd.
SEO by vBSEO 3.3.2