MMA Forum - UFC Forums - UFC Results - MMA Videos

MMA Forum - UFC Forums - UFC Results - MMA Videos (http://www.mmaforum.com/)
-   Multimedia Videos (http://www.mmaforum.com/multimedia-videos/)
-   -   UFC 52- Randy Couture vs. Chuck Liddell 2- Fight XviD (http://www.mmaforum.com/multimedia-videos/78046-ufc-52-randy-couture-vs-chuck-liddell-2-fight-xvid.html)

Tehboyd 06-19-2010 08:28 AM

UFC 52- Randy Couture vs. Chuck Liddell 2- Fight XviD
 


Code:

General
Format                          : AVI
Format/Info                      : Audio Video Interleave
Format settings                  : rec
File size                        : 407 MiB
Duration                        : 15mn 14s
Overall bit rate                : 3 732 Kbps

Video
ID                              : 0
Format                          : MPEG-4 Visual
Format profile                  : Advanced Simple@L5
Format settings, BVOP            : Yes
Format settings, QPel            : No
Format settings, GMC            : No warppoints
Format settings, Matrix          : Default (H.263)
Muxing mode                      : Packed bitstream
Codec ID                        : XVID
Codec ID/Hint                    : XviD
Duration                        : 15mn 14s
Bit rate                        : 3 598 Kbps
Width                            : 720 pixels
Height                          : 480 pixels
Display aspect ratio            : 1.500
Frame rate                      : 29.970 fps
Standard                        : NTSC
Resolution                      : 8 bits
Colorimetry                      : 4:2:0
Scan type                        : Progressive
Bits/(Pixel*Frame)              : 0.347
Stream size                      : 392 MiB (96%)
Writing library                  : XviD 1.1.2 (UTC 2006-11-01)

Audio
ID                              : 1
Format                          : MPEG Audio
Format version                  : Version 1
Format profile                  : Layer 3
Codec ID                        : 55
Codec ID/Hint                    : MP3
Duration                        : 15mn 14s
Bit rate mode                    : Constant
Bit rate                        : 128 Kbps
Channel(s)                      : 2 channels
Sampling rate                    : 48.0 KHz
Video delay                      : 17ms
Stream size                      : 13.9 MiB (3%)
Alignment                        : Split accross interleaves
Interleave, duration            : 2497 ms (74.85 video frames)





Code:

http://hotfile.com/dl/49379909/266c9b9/RC_CL2.avi.html


All times are GMT -4. The time now is 02:45 PM.

Powered by vBulletin Version 3.6.8 , Copyright ©2000 - 2014, Jelsoft Enterprises Ltd.
SEO by vBSEO 3.3.2