UFC 52- Randy Couture vs. Chuck Liddell 2- Fight XviD - MMA Forum - UFC Forums - UFC Results - MMA Videos
Multimedia Videos Videos from events mentioned at MMA Forum.

LinkBack Thread Tools Display Modes
post #1 of 1 (permalink) Old 06-19-2010, 08:28 AM Thread Starter
Tehboyd's Avatar
Join Date: Mar 2010
Posts: 203
UFC 52- Randy Couture vs. Chuck Liddell 2- Fight XviD

Format                           : AVI
Format/Info                      : Audio Video Interleave
Format settings                  : rec
File size                        : 407 MiB
Duration                         : 15mn 14s
Overall bit rate                 : 3 732 Kbps

ID                               : 0
Format                           : MPEG-4 Visual
Format profile                   : Advanced Simple@L5
Format settings, BVOP            : Yes
Format settings, QPel            : No
Format settings, GMC             : No warppoints
Format settings, Matrix          : Default (H.263)
Muxing mode                      : Packed bitstream
Codec ID                         : XVID
Codec ID/Hint                    : XviD
Duration                         : 15mn 14s
Bit rate                         : 3 598 Kbps
Width                            : 720 pixels
Height                           : 480 pixels
Display aspect ratio             : 1.500
Frame rate                       : 29.970 fps
Standard                         : NTSC
Resolution                       : 8 bits
Colorimetry                      : 4:2:0
Scan type                        : Progressive
Bits/(Pixel*Frame)               : 0.347
Stream size                      : 392 MiB (96%)
Writing library                  : XviD 1.1.2 (UTC 2006-11-01)

ID                               : 1
Format                           : MPEG Audio
Format version                   : Version 1
Format profile                   : Layer 3
Codec ID                         : 55
Codec ID/Hint                    : MP3
Duration                         : 15mn 14s
Bit rate mode                    : Constant
Bit rate                         : 128 Kbps
Channel(s)                       : 2 channels
Sampling rate                    : 48.0 KHz
Video delay                      : 17ms
Stream size                      : 13.9 MiB (3%)
Alignment                        : Split accross interleaves
Interleave, duration             : 2497 ms (74.85 video frames)

Tehboyd is offline  

Quick Reply

Register Now

In order to be able to post messages on the MMA Forum - UFC Forums - UFC Results - MMA Videos forums, you must first register.
Please enter your desired user name, your email address and other required details in the form below.

User Name:
Please enter a password for your user account. Note that passwords are case-sensitive.


Confirm Password:
Email Address
Please enter a valid email address for yourself.

Email Address:


Human Verification

In order to verify that you are a human and not a spam bot, please enter the answer into the following box below based on the instructions contained in the graphic.

Currently Active Users Viewing This Thread: 1 (0 members and 1 guests)
Thread Tools
Show Printable Version Show Printable Version
Email this Page Email this Page
Display Modes
Linear Mode Linear Mode

Posting Rules  
You may post new threads
You may post replies
You may not post attachments
You may not edit your posts

BB code is On
Smilies are On
[IMG] code is On
HTML code is Off
Trackbacks are Off
Pingbacks are Off
Refbacks are On

For the best viewing experience please update your browser to Google Chrome