WEC 49 - Jamie Varner vs. Kamal Shalorius -Fight XviD - MMA Forum - UFC Forums - UFC Results - MMA Videos
Multimedia Videos Videos from events mentioned at MMA Forum.

Reply

Old 06-19-2010, 04:47 PM   #1 (permalink)
Banned
 
Join Date: Oct 2009
Posts: 973
Dj.IcE is on another level nowDj.IcE is on another level nowDj.IcE is on another level nowDj.IcE is on another level nowDj.IcE is on another level nowDj.IcE is on another level nowDj.IcE is on another level nowDj.IcE is on another level nowDj.IcE is on another level nowDj.IcE is on another level nowDj.IcE is on another level now
WEC 49 Pre Fight Press Conference

WEC 49 Pre Fight Press Conference

RAPIDHSRAE
Code:
http://rapidshare.com/files/400798222/WEC49_PREPC_600K.wmv
HOTFILE
Code:
http://hotfile.com/dl/49453602/286b736/WEC49_PREPC_600K.wmv.html
Dj.IcE is offline   Reply With Quote
Sponsored Links
Advertisement
 

Old 06-21-2010, 11:25 AM   #2 (permalink)
Banned
 
Join Date: Oct 2009
Posts: 973
Dj.IcE is on another level nowDj.IcE is on another level nowDj.IcE is on another level nowDj.IcE is on another level nowDj.IcE is on another level nowDj.IcE is on another level nowDj.IcE is on another level nowDj.IcE is on another level nowDj.IcE is on another level nowDj.IcE is on another level nowDj.IcE is on another level now
WEC 49 post fight presser

WEC 49 post fight presser

Code:
WEC 49 post fight presser with Reed Harris / journalists, etc.

wmv, 640 x 360, 29.97 fps
RAPIDSHARE
Code:
http://rapidshare.com/files/401338739/WEC49_POSTPC_ARCHIVE.wmv
HOTFILE
Code:
http://hotfile.com/dl/49778922/668cdbd/WEC49_POSTPC_ARCHIVE.wmv.html
Dj.IcE is offline   Reply With Quote
Old 06-22-2010, 12:27 PM   #3 (permalink)
Flyweight
 
Tehboyd's Avatar
 
Join Date: Mar 2010
Posts: 203
Tehboyd Needs A HugTehboyd Needs A HugTehboyd Needs A HugTehboyd Needs A HugTehboyd Needs A HugTehboyd Needs A HugTehboyd Needs A HugTehboyd Needs A HugTehboyd Needs A HugTehboyd Needs A HugTehboyd Needs A Hug
WEC 49 - Jamie Varner vs. Kamal Shalorius -Fight XviD



Code:
General

Format                           : AVI
Format/Info                      : Audio Video Interleave
Format profile                   : OpenDML
File size                        : 1.24 GiB
Duration                         : 2h 8mn
Overall bit rate                 : 1 379 Kbps

Video
ID                               : 0
Format                           : MPEG-4 Visual
Format profile                   : Advanced Simple@L5
Format settings, BVOP            : Yes
Format settings, QPel            : No
Format settings, GMC             : No warppoints
Format settings, Matrix          : Default (MPEG)
Codec ID                         : XVID
Codec ID/Hint                    : XviD
Duration                         : 2h 8mn
Bit rate                         : 1 202 Kbps
Width                            : 640 pixels
Height                           : 360 pixels
Display aspect ratio             : 16:9
Frame rate                       : 29.970 fps
Resolution                       : 8 bits
Colorimetry                      : 4:2:0
Scan type                        : Progressive
Bits/(Pixel*Frame)               : 0.174
Stream size                      : 1.08 GiB (87%)
Writing library                  : XviD 1.2.1 (UTC 2008-12-04)

Audio
ID                               : 1
Format                           : MPEG Audio
Format version                   : Version 1
Format profile                   : Layer 3
Codec ID                         : 55
Codec ID/Hint                    : MP3
Duration                         : 2h 8mn
Bit rate mode                    : Constant
Bit rate                         : 160 Kbps
Channel(s)                       : 2 channels
Sampling rate                    : 48.0 KHz
Video delay                      : 8ms
Stream size                      : 147 MiB (12%)
Alignment                        : Aligned on interleaves
Interleave, duration             : 24 ms (0.72 video frame)



Code:
http://hotfile.com/dl/49967272/268b935/JW_KS.avi.html
Tehboyd is offline   Reply With Quote
Old 06-22-2010, 01:11 PM   #4 (permalink)
Flyweight
 
Tehboyd's Avatar
 
Join Date: Mar 2010
Posts: 203
Tehboyd Needs A HugTehboyd Needs A HugTehboyd Needs A HugTehboyd Needs A HugTehboyd Needs A HugTehboyd Needs A HugTehboyd Needs A HugTehboyd Needs A HugTehboyd Needs A HugTehboyd Needs A HugTehboyd Needs A Hug
WEC 49 - Josh Grispi vs. LC Davis -Fight XviD



Code:
General

Format                           : AVI
Format/Info                      : Audio Video Interleave
Format profile                   : OpenDML
File size                        : 1.24 GiB
Duration                         : 2h 8mn
Overall bit rate                 : 1 379 Kbps

Video
ID                               : 0
Format                           : MPEG-4 Visual
Format profile                   : Advanced Simple@L5
Format settings, BVOP            : Yes
Format settings, QPel            : No
Format settings, GMC             : No warppoints
Format settings, Matrix          : Default (MPEG)
Codec ID                         : XVID
Codec ID/Hint                    : XviD
Duration                         : 2h 8mn
Bit rate                         : 1 202 Kbps
Width                            : 640 pixels
Height                           : 360 pixels
Display aspect ratio             : 16:9
Frame rate                       : 29.970 fps
Resolution                       : 8 bits
Colorimetry                      : 4:2:0
Scan type                        : Progressive
Bits/(Pixel*Frame)               : 0.174
Stream size                      : 1.08 GiB (87%)
Writing library                  : XviD 1.2.1 (UTC 2008-12-04)

Audio
ID                               : 1
Format                           : MPEG Audio
Format version                   : Version 1
Format profile                   : Layer 3
Codec ID                         : 55
Codec ID/Hint                    : MP3
Duration                         : 2h 8mn
Bit rate mode                    : Constant
Bit rate                         : 160 Kbps
Channel(s)                       : 2 channels
Sampling rate                    : 48.0 KHz
Video delay                      : 8ms
Stream size                      : 147 MiB (12%)
Alignment                        : Aligned on interleaves
Interleave, duration             : 24 ms (0.72 video frame)


Code:
http://hotfile.com/dl/49966867/956019d/JC_LD.avi.html
Tehboyd is offline   Reply With Quote
Reply



Currently Active Users Viewing This Thread: 1 (0 members and 1 guests)
 
Thread Tools
Display Modes

Posting Rules
You may not post new threads
You may not post replies
You may not post attachments
You may not edit your posts

vB code is On
Smilies are On
[IMG] code is On
HTML code is Off
Trackbacks are Off
Pingbacks are Off
Refbacks are On

VerticalSports
Baseball Forum Golf Forum Boxing Forum Snowmobile Forum
Basketball Forum Soccer Forum MMA Forum PWC Forum
Football Forum Cricket Forum Wrestling Forum ATV Forum
Hockey Forum Volleyball Forum Paintball Forum Snowboarding Forum
Tennis Forum Rugby Forums Lacrosse Forum Skiing Forums
Copyright (C) Verticalscope Inc SEO by vBSEO 3.3.2
Powered by vBulletin Copyright 2000-2009 Jelsoft Enterprises Limited.
vBCredits v1.4 Copyright ©2007, PixelFX Studios