MMA Forum - UFC Forums - UFC Results - MMA Videos

MMA Forum - UFC Forums - UFC Results - MMA Videos (http://www.mmaforum.com/)
-   Multimedia Videos (http://www.mmaforum.com/multimedia-videos/)
-   -   UFC 116 -Lesnar vs Carwin - Countdown - XviD (http://www.mmaforum.com/multimedia-videos/78526-ufc-116-lesnar-vs-carwin-countdown-xvid.html)

Tehboyd 06-30-2010 01:54 PM

UFC 116 -Lesnar vs Carwin - Countdown - XviD
 


Code:

General
Format                          : AVI
Format/Info                      : Audio Video Interleave
File size                        : 252 MiB
Duration                        : 38mn 53s
Overall bit rate                : 908 Kbps
Writing application              : Lavf52.32.0

Video
ID                              : 0
Format                          : MPEG-4 Visual
Format profile                  : Simple@L3
Format settings, BVOP            : No
Format settings, QPel            : No
Format settings, GMC            : No warppoints
Format settings, Matrix          : Default (H.263)
Codec ID                        : XVID
Codec ID/Hint                    : XviD
Duration                        : 38mn 53s
Bit rate                        : 800 Kbps
Width                            : 624 pixels
Height                          : 352 pixels
Display aspect ratio            : 16:9
Frame rate                      : 23.976 fps
Resolution                      : 8 bits
Colorimetry                      : 4:2:0
Scan type                        : Progressive
Bits/(Pixel*Frame)              : 0.152
Stream size                      : 222 MiB (88%)
Writing library                  : XviD 1.2.1 (UTC 2008-12-04)

Audio
ID                              : 1
Format                          : MPEG Audio
Format version                  : Version 1
Format profile                  : Layer 3
Format_Settings_Mode            : Joint stereo
Format_Settings_ModeExtension    : MS Stereo
Codec ID                        : 55
Codec ID/Hint                    : MP3
Duration                        : 38mn 53s
Bit rate mode                    : Constant
Bit rate                        : 96.0 Kbps
Channel(s)                      : 2 channels
Sampling rate                    : 44.1 KHz
Stream size                      : 26.7 MiB (11%)
Alignment                        : Aligned on interleaves
Interleave, duration            : 26 ms (0.63 video frame)
Writing library                  : LAME3.98.2


Code:

http://hotfile.com/dl/51631783/c64feae/U_Cou.avi.html


All times are GMT -4. The time now is 08:31 AM.

Powered by vBulletin Version 3.6.8 , Copyright ©2000 - 2014, Jelsoft Enterprises Ltd.
SEO by vBSEO 3.3.2