Fight News UFC 116-Lesnar vs.Carwin Preview XviD - MMA Forum - UFC Forums - UFC Results - MMA Videos
Multimedia Videos Videos from events mentioned at MMA Forum.

LinkBack Thread Tools Display Modes
post #1 of 1 (permalink) Old 07-01-2010, 02:56 PM Thread Starter
Tehboyd's Avatar
Join Date: Mar 2010
Posts: 203
Fight News UFC 116-Lesnar vs.Carwin Preview XviD


Format                           : AVI
Format/Info                      : Audio Video Interleave
File size                        : 227 MiB
Duration                         : 25mn 59s
Overall bit rate                 : 1 220 Kbps
Director                         : created.with.SUPER(C).v2010.bld.38
Writing application              : SUPER(C) - by eRightSoft

ID                               : 0
Format                           : MPEG-4 Visual
Format profile                   : Advanced Simple@L5
Format settings, BVOP            : Yes
Format settings, QPel            : No
Format settings, GMC             : No warppoints
Format settings, Matrix          : Default (MPEG)
Codec ID                         : XVID
Codec ID/Hint                    : XviD
Duration                         : 25mn 59s
Bit rate                         : 1 078 Kbps
Width                            : 512 pixels
Height                           : 384 pixels
Display aspect ratio             : 4:3
Frame rate                       : 29.970 fps
Resolution                       : 8 bits
Colorimetry                      : 4:2:0
Scan type                        : Progressive
Bits/(Pixel*Frame)               : 0.183
Stream size                      : 200 MiB (88%)
Writing library                  : XviD 1.1.2 (UTC 2006-11-01)

ID                               : 1
Format                           : MPEG Audio
Format version                   : Version 1
Format profile                   : Layer 3
Codec ID                         : 55
Codec ID/Hint                    : MP3
Duration                         : 25mn 59s
Bit rate mode                    : Constant
Bit rate                         : 128 Kbps
Channel(s)                       : 2 channels
Sampling rate                    : 48.0 KHz
Video delay                      : 33ms
Stream size                      : 23.8 MiB (10%)
Alignment                        : Aligned on interleaves
Interleave, duration             : 24 ms (0.72 video frame)
Interleave, preload duration     : 504 ms

Tehboyd is offline  

Quick Reply

Register Now

In order to be able to post messages on the MMA Forum - UFC Forums - UFC Results - MMA Videos forums, you must first register.
Please enter your desired user name, your email address and other required details in the form below.

User Name:
Please enter a password for your user account. Note that passwords are case-sensitive.


Confirm Password:
Email Address
Please enter a valid email address for yourself.

Email Address:


Human Verification

In order to verify that you are a human and not a spam bot, please enter the answer into the following box below based on the instructions contained in the graphic.

Currently Active Users Viewing This Thread: 1 (0 members and 1 guests)
Thread Tools
Show Printable Version Show Printable Version
Email this Page Email this Page
Display Modes
Linear Mode Linear Mode

Posting Rules  
You may post new threads
You may post replies
You may not post attachments
You may not edit your posts

BB code is On
Smilies are On
[IMG] code is On
HTML code is Off
Trackbacks are Off
Pingbacks are Off
Refbacks are On

For the best viewing experience please update your browser to Google Chrome