UFC 116 -Fight Press Conference XviD - MMA Forum - UFC Forums - UFC Results - MMA Videos
Multimedia Videos Videos from events mentioned at MMA Forum.

Reply

Old 07-02-2010, 09:49 AM   #1 (permalink)
Flyweight
 
Tehboyd's Avatar
 
Join Date: Mar 2010
Posts: 203
Tehboyd Needs A HugTehboyd Needs A HugTehboyd Needs A HugTehboyd Needs A HugTehboyd Needs A HugTehboyd Needs A HugTehboyd Needs A HugTehboyd Needs A HugTehboyd Needs A HugTehboyd Needs A HugTehboyd Needs A Hug
UFC 116 -Fight Press Conference XviD



Code:
General

Format                           : AVI
Format/Info                      : Audio Video Interleave
File size                        : 136 MiB
Duration                         : 35mn 36s
Overall bit rate                 : 535 Kbps
Writing application              : Lavf52.32.0

Video
ID                               : 0
Format                           : MPEG-4 Visual
Format profile                   : Simple@L3
Format settings, BVOP            : No
Format settings, QPel            : No
Format settings, GMC             : No warppoints
Format settings, Matrix          : Default (H.263)
Codec ID                         : XVID
Codec ID/Hint                    : XviD
Duration                         : 35mn 36s
Bit rate                         : 427 Kbps
Width                            : 512 pixels
Height                           : 384 pixels
Display aspect ratio             : 4:3
Frame rate                       : 23.976 fps
Resolution                       : 8 bits
Colorimetry                      : 4:2:0
Scan type                        : Progressive
Bits/(Pixel*Frame)               : 0.091
Stream size                      : 109 MiB (80%)
Writing library                  : XviD 1.2.1 (UTC 2008-12-04)

Audio
ID                               : 1
Format                           : MPEG Audio
Format version                   : Version 1
Format profile                   : Layer 3
Format_Settings_Mode             : Joint stereo
Format_Settings_ModeExtension    : MS Stereo
Codec ID                         : 55
Codec ID/Hint                    : MP3
Duration                         : 35mn 36s
Bit rate mode                    : Constant
Bit rate                         : 96.0 Kbps
Channel(s)                       : 2 channels
Sampling rate                    : 44.1 KHz
Stream size                      : 24.4 MiB (18%)
Alignment                        : Aligned on interleaves
Interleave, duration             : 26 ms (0.63 video frame)

Code:
http://hotfile.com/dl/52004630/9285a94/U_Pre.avi.html
Tehboyd is offline   Reply With Quote
Reply



Currently Active Users Viewing This Thread: 1 (0 members and 1 guests)
 
Thread Tools
Display Modes

Posting Rules
You may not post new threads
You may not post replies
You may not post attachments
You may not edit your posts

vB code is On
Smilies are On
[IMG] code is On
HTML code is Off
Trackbacks are Off
Pingbacks are Off
Refbacks are On

VerticalSports
Baseball Forum Golf Forum Boxing Forum Snowmobile Forum
Basketball Forum Soccer Forum MMA Forum PWC Forum
Football Forum Cricket Forum Wrestling Forum ATV Forum
Hockey Forum Volleyball Forum Paintball Forum Snowboarding Forum
Tennis Forum Rugby Forums Lacrosse Forum Skiing Forums
Copyright (C) Verticalscope Inc SEO by vBSEO 3.3.2
Powered by vBulletin Copyright 2000-2009 Jelsoft Enterprises Limited.
vBCredits v1.4 Copyright ©2007, PixelFX Studios