UFC 116 -Brock Lesnar vs. Shane Carwin -Fight XviD - Page 2 - MMA Forum - UFC Forums - UFC Results - MMA Videos
Multimedia Videos Videos from events mentioned at MMA Forum.

Reply
 
LinkBack Thread Tools Display Modes
post #11 of 27 (permalink) Old 07-04-2010, 02:55 AM
Flyweight
 
Tehboyd's Avatar
 
Join Date: Mar 2010
Posts: 203
                     
UFC 116 -Brendan Schaub vs. Chris Tuchscherer -Fight XviD



Code:
General

Format                           : AVI
Format/Info                      : Audio Video Interleave
File size                        : 134 MiB
Duration                         : 11mn 7s
Overall bit rate                 : 1 690 Kbps
Writing application              : Nandub v1.0rc2
Writing library                  : VirtualDub build 32593/release

Video
ID                               : 0
Format                           : MPEG-4 Visual
Format profile                   : Advanced Simple@L5
Format settings, BVOP            : Yes
Format settings, QPel            : No
Format settings, GMC             : No warppoints
Format settings, Matrix          : Default (H.263)
Codec ID                         : XVID
Codec ID/Hint                    : XviD
Duration                         : 11mn 7s
Bit rate                         : 1 550 Kbps
Width                            : 624 pixels
Height                           : 352 pixels
Display aspect ratio             : 16:9
Frame rate                       : 29.970 fps
Resolution                       : 8 bits
Colorimetry                      : 4:2:0
Scan type                        : Progressive
Bits/(Pixel*Frame)               : 0.235
Stream size                      : 123 MiB (92%)
Writing library                  : XviD 1.2.1 (UTC 2008-12-04)

Audio
ID                               : 1
Format                           : MPEG Audio
Format version                   : Version 1
Format profile                   : Layer 3
Format_Settings_Mode             : Joint stereo
Format_Settings_ModeExtension    : MS Stereo
Codec ID                         : 55
Codec ID/Hint                    : MP3
Duration                         : 11mn 7s
Bit rate mode                    : Constant
Bit rate                         : 128 Kbps
Channel(s)                       : 2 channels
Sampling rate                    : 48.0 KHz
Stream size                      : 10.2 MiB (8%)
Alignment                        : Split accross interleaves
Interleave, duration             : 33 ms (1.00 video frame)
Interleave, preload duration     : 500 ms




Code:
http://hotfile.com/dl/52422938/1676d90/BS_CT.avi.html
Tehboyd is offline  
Sponsored Links
Advertisement
 
post #12 of 27 (permalink) Old 07-04-2010, 03:14 AM
MMA Fanatic
 
Join Date: Apr 2010
Posts: 45
                     
UFC 116 : Carwin vs Lesnar : Main Event Single Fights

UFC 116 : Carwin Vs Lesnar Main Event Single Fight




Here is the main event fight for UFC 116

(With the recent changes I have stopped using rapidshare, I apologize for any inconvenience this may have caused you)


Megaupload
Code:
http://www.megaupload.com/?d=HKRLZZ0U
Depositfiles
Code:
http://depositfiles.com/en/files/bljdgoqle
HotFile
Code:
http://hotfile.com/dl/52433898/5ef4323/S.C.vs.B.L.R.avi.html

Last edited by ranja; 07-04-2010 at 09:17 AM. Reason: Added hotfile
ranja is offline  
post #13 of 27 (permalink) Old 07-04-2010, 03:18 AM
Flyweight
 
Tehboyd's Avatar
 
Join Date: Mar 2010
Posts: 203
                     
UFC 116 -Chris Lytle vs. Matt Brown -Fight XviD



Code:
General

Format                           : AVI
Format/Info                      : Audio Video Interleave
Format profile                   : OpenDML
File size                        : 90.0 MiB
Duration                         : 8mn 24s
Overall bit rate                 : 1 495 Kbps
Writing application              : AVI-Mux GUI 1.17.8.3, Feb 16 201019:42:50

Video
ID                               : 0
Format                           : MPEG-4 Visual
Format profile                   : Advanced Simple@L5
Format settings, BVOP            : Yes
Format settings, QPel            : No
Format settings, GMC             : No warppoints
Format settings, Matrix          : Default (H.263)
Muxing mode                      : Packed bitstream
Codec ID                         : XVID
Codec ID/Hint                    : XviD
Duration                         : 8mn 24s
Bit rate                         : 1 374 Kbps
Width                            : 640 pixels
Height                           : 352 pixels
Display aspect ratio             : 16:9
Frame rate                       : 29.970 fps
Resolution                       : 8 bits
Colorimetry                      : 4:2:0
Scan type                        : Progressive
Bits/(Pixel*Frame)               : 0.204
Stream size                      : 82.7 MiB (92%)
Writing library                  : XviD 1.2.1 (UTC 2008-12-04)

Audio
ID                               : 1
Format                           : MPEG Audio
Format version                   : Version 1
Format profile                   : Layer 3
Format_Settings_Mode             : Joint stereo
Format_Settings_ModeExtension    : MS Stereo
Codec ID                         : 55
Codec ID/Hint                    : MP3
Duration                         : 8mn 24s
Bit rate mode                    : Variable
Bit rate                         : 110 Kbps
Nominal bit rate                 : 128 Kbps
Channel(s)                       : 2 channels
Sampling rate                    : 48.0 KHz
Stream size                      : 6.63 MiB (7%)
Alignment                        : Aligned on interleaves
Interleave, duration             : 24 ms (0.72 video frame)
Interleave, preload duration     : 209 ms




Code:
http://hotfile.com/dl/52431102/d8b0a74/CL_MB.rar.html
Tehboyd is offline  
post #14 of 27 (permalink) Old 07-04-2010, 03:29 AM
Flyweight
 
Tehboyd's Avatar
 
Join Date: Mar 2010
Posts: 203
                     
UFC 116 -George Sotiropoulosvs.Kurt Pellegrino-Fight XviD



Code:
General

Format                           : AVI
Format/Info                      : Audio Video Interleave
Format profile                   : OpenDML
File size                        : 90.0 MiB
Duration                         : 8mn 24s
Overall bit rate                 : 1 495 Kbps


Video
ID                               : 0
Format                           : MPEG-4 Visual
Format profile                   : Advanced Simple@L5
Format settings, BVOP            : Yes
Format settings, QPel            : No
Format settings, GMC             : No warppoints
Format settings, Matrix          : Default (H.263)
Muxing mode                      : Packed bitstream
Codec ID                         : XVID
Codec ID/Hint                    : XviD
Duration                         : 8mn 24s
Bit rate                         : 1 374 Kbps
Width                            : 640 pixels
Height                           : 352 pixels
Display aspect ratio             : 16:9
Frame rate                       : 29.970 fps
Resolution                       : 8 bits
Colorimetry                      : 4:2:0
Scan type                        : Progressive
Bits/(Pixel*Frame)               : 0.204
Stream size                      : 82.7 MiB (92%)
Writing library                  : XviD 1.2.1 (UTC 2008-12-04)

Audio
ID                               : 1
Format                           : MPEG Audio
Format version                   : Version 1
Format profile                   : Layer 3
Format_Settings_Mode             : Joint stereo
Format_Settings_ModeExtension    : MS Stereo
Codec ID                         : 55
Codec ID/Hint                    : MP3
Duration                         : 8mn 24s
Bit rate mode                    : Variable
Bit rate                         : 110 Kbps
Nominal bit rate                 : 128 Kbps
Channel(s)                       : 2 channels
Sampling rate                    : 48.0 KHz
Stream size                      : 6.63 MiB (7%)
Alignment                        : Aligned on interleaves
Interleave, duration             : 24 ms (0.72 video frame)
Interleave, preload duration     : 209 m
s






Code:
http://hotfile.com/dl/52432124/3cf2ae3/GS_KP.avi.html
Tehboyd is offline  
post #15 of 27 (permalink) Old 07-04-2010, 03:57 AM
Flyweight
 
Tehboyd's Avatar
 
Join Date: Mar 2010
Posts: 203
                     
UFC 116 -Gerald Harris vs. Dave Branch - Fight XviD



Code:
General

Format                           : AVI
Format/Info                      : Audio Video Interleave
File size                        : 134 MiB
Duration                         : 11mn 7s
Overall bit rate                 : 1 690 Kbps
Writing application              : Nandub v1.0rc2
Writing library                  : VirtualDub build 32593/release

Video
ID                               : 0
Format                           : MPEG-4 Visual
Format profile                   : Advanced Simple@L5
Format settings, BVOP            : Yes
Format settings, QPel            : No
Format settings, GMC             : No warppoints
Format settings, Matrix          : Default (H.263)
Codec ID                         : XVID
Codec ID/Hint                    : XviD
Duration                         : 11mn 7s
Bit rate                         : 1 550 Kbps
Width                            : 624 pixels
Height                           : 352 pixels
Display aspect ratio             : 16:9
Frame rate                       : 29.970 fps
Resolution                       : 8 bits
Colorimetry                      : 4:2:0
Scan type                        : Progressive
Bits/(Pixel*Frame)               : 0.235
Stream size                      : 123 MiB (92%)
Writing library                  : XviD 1.2.1 (UTC 2008-12-04)

Audio
ID                               : 1
Format                           : MPEG Audio
Format version                   : Version 1
Format profile                   : Layer 3
Format_Settings_Mode             : Joint stereo
Format_Settings_ModeExtension    : MS Stereo
Codec ID                         : 55
Codec ID/Hint                    : MP3
Duration                         : 11mn 7s
Bit rate mode                    : Constant
Bit rate                         : 128 Kbps
Channel(s)                       : 2 channels
Sampling rate                    : 48.0 KHz
Stream size                      : 10.2 MiB (8%)
Alignment                        : Split accross interleaves
Interleave, duration             : 33 ms (1.00 video frame)
Interleave, preload duration     : 500 ms




Code:
http://hotfile.com/dl/52436633/411a3c4/GH_DB.avi.html
Tehboyd is offline  
post #16 of 27 (permalink) Old 07-04-2010, 04:39 AM Thread Starter
Banned
 
Join Date: Oct 2009
Posts: 973
                     
UFC.116.ESPN.HDTV.XviD-FreaK



Code:
General

Format: AVI

Format/Info: Audio Video Interleave

File size: 1.38 GiB

Duration: 2h 44mn

Overall bit rate: 1 205 Kbps



Video

Codec ID/Hint: XviD

Duration: 2h 44mn

Bit rate: 1 067 Kbps

Width: 624 pixels

Height: 352 pixels

Display aspect ratio: 16:9

Frame rate: 25.000 fps

Scan type: Progressive



Audio

ID: 1

Format: MPEG Audio

Format version: Version 1

Format profile: Layer 3

Mode: Joint stereo

Format_Settings_ModeExtension: MS Stereo

Codec ID: 55

Codec ID/Hint: MP3

Duration: 2h 44mn

Bit rate mode: Constant

Bit rate: 128 Kbps

Channel(s): 2 channels

Sampling rate: 48.0 KHz

Enjoy
RAPIDSHARE
Code:
http://rapidshare.com/files/404825147/UFC.116.ESPN.HDTV.XviD-FreaK.pt1.part1.rar
http://rapidshare.com/files/404825224/UFC.116.ESPN.HDTV.XviD-FreaK.pt1.part2.rar
http://rapidshare.com/files/404825302/UFC.116.ESPN.HDTV.XviD-FreaK.pt1.part3.rar
http://rapidshare.com/files/404825380/UFC.116.ESPN.HDTV.XviD-FreaK.pt1.part4.rar
http://rapidshare.com/files/404832491/UFC.116.ESPN.HDTV.XviD-FreaK.pt2.part1.rar
http://rapidshare.com/files/404832567/UFC.116.ESPN.HDTV.XviD-FreaK.pt2.part2.rar
http://rapidshare.com/files/404832661/UFC.116.ESPN.HDTV.XviD-FreaK.pt2.part3.rar
http://rapidshare.com/files/404832448/UFC.116.ESPN.HDTV.XviD-FreaK.pt2.part4.rar
HOTFILE
Code:
http://hotfile.com/dl/52430672/4568640/UFC.116.ESPN.HDTV.XviD-FreaK.pt1.part1.rar.html
http://hotfile.com/dl/52430673/b592648/UFC.116.ESPN.HDTV.XviD-FreaK.pt1.part2.rar.html
http://hotfile.com/dl/52430722/095fa5c/UFC.116.ESPN.HDTV.XviD-FreaK.pt1.part3.rar.html
http://hotfile.com/dl/52430721/57916b4/UFC.116.ESPN.HDTV.XviD-FreaK.pt1.part4.rar.html
http://hotfile.com/dl/52441769/0626204/UFC.116.ESPN.HDTV.XviD-FreaK.pt2.part1.rar.html
http://hotfile.com/dl/52442063/d54cd88/UFC.116.ESPN.HDTV.XviD-FreaK.pt2.part2.rar.html
http://hotfile.com/dl/52441743/1d6451e/UFC.116.ESPN.HDTV.XviD-FreaK.pt2.part3.rar.html
http://hotfile.com/dl/52441653/f5104c2/UFC.116.ESPN.HDTV.XviD-FreaK.pt2.part4.rar.html
NETLOAD
Code:
http://netload.in/dateikwNlFuZuKN/UFC.116.ESPN.HDTV.XviD-FreaK.pt1.part1.rar.htm
http://netload.in/dateiXokFil45NP/UFC.116.ESPN.HDTV.XviD-FreaK.pt1.part2.rar.htm
http://netload.in/dateidNEJ0yykyA/UFC.116.ESPN.HDTV.XviD-FreaK.pt1.part3.rar.htm
http://netload.in/dateiQ31zAEPhqQ/UFC.116.ESPN.HDTV.XviD-FreaK.pt1.part4.rar.htm
http://netload.in/dateirofDefkcEx/UFC.116.ESPN.HDTV.XviD-FreaK.pt2.part1.rar.htm
http://netload.in/dateiMQgwkrOV8s/UFC.116.ESPN.HDTV.XviD-FreaK.pt2.part2.rar.htm
http://netload.in/dateic8pGA2vzAn/UFC.116.ESPN.HDTV.XviD-FreaK.pt2.part3.rar.htm
http://netload.in/dateib11OTrxIK4/UFC.116.ESPN.HDTV.XviD-FreaK.pt2.part4.rar.htm
TURBO
Code:
http://turbobit.net/is7jrsj6703v.html
http://turbobit.net/7foyd3b68jv1.html
http://turbobit.net/g3r62b790hso.html
http://turbobit.net/sae3uhdkisxz.html
http://turbobit.net/501olhz6e9b1.html
http://turbobit.net/qjcsdc4raci4.html
http://turbobit.net/3j75gp8tftcz.html
http://turbobit.net/72bgajplgojz.html
DEPOSITFILES
Code:
http://depositfiles.com/files/qw1o0bb6m
http://depositfiles.com/files/4ebqqp4be
http://depositfiles.com/files/5hshto7ch
http://depositfiles.com/files/78yvi0uw3
http://depositfiles.com/files/tw74xlxap
http://depositfiles.com/files/ykdyd13am
http://depositfiles.com/files/jzzamxfuw
http://depositfiles.com/files/zq93p9w4l

1 LINK DOWNLOADS

HOTFILE
Code:
http://hotfile.com/dl/52431954/9ac7e80/UFC.116.ESPN.HDTV.XviD-FreaK.pt1.avi.html
http://hotfile.com/dl/52442087/4ae4464/UFC.116.ESPN.HDTV.XviD-FreaK.pt2.avi.html
MEGAUPLOAD
Code:
http://www.megaupload.com/?d=LOQ4O19V
http://www.megaupload.com/?d=B1NB3KYO
RS PREMIUM
Code:
http://rapidshare.com/files/404825148/UFC.116.ESPN.HDTV.XviD-FreaK.pt1.avi
http://rapidshare.com/files/404832337/UFC.116.ESPN.HDTV.XviD-FreaK.pt2.avi
DEPOSITFILES
Code:
http://depositfiles.com/files/49cmnulmg
http://depositfiles.com/files/m6vvi6lwk
TURBO
Code:
http://turbobit.net/59ikyvyigp5r.html
http://turbobit.net/lqxlp3zwsreo.html
Dj.IcE is offline  
post #17 of 27 (permalink) Old 07-04-2010, 07:19 AM Thread Starter
Banned
 
Join Date: Oct 2009
Posts: 973
                     
post fight press coming up
Dj.IcE is offline  
post #18 of 27 (permalink) Old 07-04-2010, 07:33 AM Thread Starter
Banned
 
Join Date: Oct 2009
Posts: 973
                     
removed

Last edited by Dj.IcE; 07-04-2010 at 08:34 AM.
Dj.IcE is offline  
post #19 of 27 (permalink) Old 07-04-2010, 07:48 AM
Flyweight
 
Tehboyd's Avatar
 
Join Date: Mar 2010
Posts: 203
                     
UFC 116 -Yoshihiro Akiyama vs. Chris Leben - Fight XviD



Code:
General

Format                           : AVI
Format/Info                      : Audio Video Interleave
File size                        : 711 MiB
Duration                         : 1h 22mn
Overall bit rate                 : 1 205 Kbps


Video
ID                               : 0
Format                           : MPEG-4 Visual
Format profile                   : Advanced Simple@L5
Format settings, BVOP            : Yes
Format settings, QPel            : No
Format settings, GMC             : No warppoints
Format settings, Matrix          : Default (H.263)
Muxing mode                      : Packed bitstream
Codec ID                         : XVID
Codec ID/Hint                    : XviD
Duration                         : 1h 22mn
Bit rate                         : 1 068 Kbps
Width                            : 624 pixels
Height                           : 352 pixels
Display aspect ratio             : 16:9
Frame rate                       : 25.000 fps
Resolution                       : 8 bits
Colorimetry                      : 4:2:0
Scan type                        : Progressive
Bits/(Pixel*Frame)               : 0.194
Stream size                      : 629 MiB (89%)
Writing library                  : XviD 1.2.1 (UTC 2008-12-04)

Audio
ID                               : 1
Format                           : MPEG Audio
Format version                   : Version 1
Format profile                   : Layer 3
Format_Settings_Mode             : Joint stereo
Codec ID                         : 55
Codec ID/Hint                    : MP3
Duration                         : 1h 22mn
Bit rate mode                    : Constant
Bit rate                         : 128 Kbps
Channel(s)                       : 2 channels
Sampling rate                    : 48.0 KHz
Stream size                      : 75.4 MiB (11%)
Alignment                        : Aligned on interleaves
Interleave, duration             : 40 ms (1.00 video frame)
Interleave, preload duration     : 480 ms



Code:
http://hotfile.com/dl/52530418/31d1f86/AY_CL.avi.html

Last edited by Tehboyd; 07-04-2010 at 01:49 PM.
Tehboyd is offline  
post #20 of 27 (permalink) Old 07-04-2010, 09:07 AM Thread Starter
Banned
 
Join Date: Oct 2009
Posts: 973
                     
sorry for the early mess with post fight confrence will post a better one in mins
Dj.IcE is offline  
Reply

Quick Reply
Message:
Options

Register Now



In order to be able to post messages on the MMA Forum - UFC Forums - UFC Results - MMA Videos forums, you must first register.
Please enter your desired user name, your email address and other required details in the form below.

User Name:
Password
Please enter a password for your user account. Note that passwords are case-sensitive.

Password:


Confirm Password:
Email Address
Please enter a valid email address for yourself.

Email Address:
OR

Log-in









Human Verification

In order to verify that you are a human and not a spam bot, please enter the answer into the following box below based on the instructions contained in the graphic.



Currently Active Users Viewing This Thread: 1 (0 members and 1 guests)
 
Thread Tools
Show Printable Version Show Printable Version
Email this Page Email this Page
Display Modes
Linear Mode Linear Mode



Posting Rules  
You may post new threads
You may post replies
You may not post attachments
You may not edit your posts

BB code is On
Smilies are On
[IMG] code is On
HTML code is Off
Trackbacks are Off
Pingbacks are Off
Refbacks are On

 
For the best viewing experience please update your browser to Google Chrome