MMA Forum - UFC Forums - UFC Results - MMA Videos

MMA Forum - UFC Forums - UFC Results - MMA Videos (http://www.mmaforum.com/)
-   Multimedia Videos (http://www.mmaforum.com/multimedia-videos/)
-   -   UFC 116 -Brock Lesnar vs. Shane Carwin -Fight XviD (http://www.mmaforum.com/multimedia-videos/78673-ufc-116-brock-lesnar-vs-shane-carwin-fight-xvid.html)

Dj.IcE 07-03-2010 03:35 AM

HDnet-Inside MMA 2010-July 2
 
HDnet-Inside MMA 2010-July 2



RS PREMIUM
Code:

http://rapidshare.com/files/404639249/HDnet-Inside_MMA__2010-July_2.rar
HOTFILE
Code:

http://hotfile.com/dl/52253855/6e2207e/HDnet-Inside_MMA__2010-July_2.rar.html
TURBO
Code:

http://turbobit.net/8z49bfl72c34.html
DEPOSITFILES
Code:

http://depositfiles.com/files/xwa1g8s03

Tehboyd 07-03-2010 07:40 AM

Shane Carwin - Day Program HD 1280x720
 


Code:

General

Format                          : MPEG-4
Format profile                  : Base Media / Version 2
Codec ID                        : mp42
File size                        : 107 MiB
Duration                        : 7mn 0s
Overall bit rate                : 2 135 Kbps


Video
ID                              : 2
Format                          : AVC
Format/Info                      : Advanced Video Codec
Format profile                  : High@L3.1
Format settings, CABAC          : Yes
Format settings, ReFrames        : 3 frames
Codec ID                        : avc1
Codec ID/Info                    : Advanced Video Coding
Duration                        : 7mn 0s
Bit rate mode                    : Variable
Bit rate                        : 2 007 Kbps
Maximum bit rate                : 3 213 Kbps
Width                            : 1 280 pixels
Height                          : 720 pixels
Display aspect ratio            : 16:9
Frame rate mode                  : Constant
Frame rate                      : 29.970 fps
Resolution                      : 8 bits
Colorimetry                      : 4:2:0
Scan type                        : Progressive
Bits/(Pixel*Frame)              : 0.073
Stream size                      : 101 MiB (94%)

Audio
ID                              : 1
Format                          : AAC
Format/Info                      : Advanced Audio Codec
Format version                  : Version 4
Format profile                  : LC
Format settings, SBR            : No
Codec ID                        : 40
Duration                        : 7mn 0s
Bit rate mode                    : Variable
Bit rate                        : 125 Kbps
Maximum bit rate                : 138 Kbps
Channel(s)                      : 2 channels
Channel positions                : L R
Sampling rate                    : 44.1 KHz
Stream size                      : 6.25 MiB (6%)


Code:

http://hotfile.com/dl/52288899/d1ac29c/SC_Day.avi.html

Mike Male$h 07-03-2010 08:21 AM

Ive seen this before, its been on youtube for a few months now.

Tehboyd 07-03-2010 08:56 AM

UFC 116 - Dana White Pre Fight Interview
 


Velasquez will fight the winner between Carwin and Brock . And the winner between Dos Santos vs . Roy Nelson will fight the winner from Velasquez fight . That's what Dana White said .

"CIGANO" might get the the title shot . All he has to do is knockout Roy Nelson , or just win the Fight at UFC 117 .


Code:

http://hotfile.com/dl/52299857/56617d9/DW_Int.avi.html

Tehboyd 07-03-2010 06:35 PM

UFC 116 - Lesnar vs. Carwin - Open Workout HD 1280x720
 



Code:

http://hotfile.com/dl/52381122/9a3a054/CL_OW.avi.html

Dj.IcE 07-04-2010 12:55 AM

UFC.116.ESPN.HDTV.XviD-FreaK / FIGHTS
 
UFC.116.FIGHTS



UFC•116•Krzysztof.Soszynski.vs.Stephan.Bonnar•XviD •BluntzRip
Code:

http://rapidshare.com/files/404817429/Krzysztof.Soszynski.vs.Stephan.Bonnar.avi
Code:

http://hotfile.com/dl/52420344/8412ac5/Krzysztof.Soszynski.vs.Stephan.Bonnar.avi.html

UFC•116•George.Sotiropoulos.vs.Kurt.Pellegrino•Xvi D•BluntzRip
Code:

http://rapidshare.com/files/404817431/George.Sotiropoulos.vs.Kurt.Pellegrino.avi
Code:

http://hotfile.com/dl/52420345/27c532f/George.Sotiropoulos.vs.Kurt.Pellegrino.avi.html

UFC•116•Chris.Lytle.vs.Matt.Brown•XviD•BluntzRip
Code:

http://rapidshare.com/files/404819257/Chris.Lytle.vs.Matt.Brown.avi
Code:

http://hotfile.com/dl/52421568/8097c77/Chris.Lytle.vs.Matt.Brown.avi.html

UFC•116•Shane Carwin vs Brock Lesnar•XviD•BluntzRip
Code:

http://rapidshare.com/files/404820087/Shane.Carwin.vs.Brock.Lesnar.avi
Code:

http://hotfile.com/dl/52422202/4cdb1a4/Shane.Carwin.vs.Brock.Lesnar.avi.html

Tehboyd 07-04-2010 01:15 AM

UFC 116 -Seth Petruzelli vs. Ricardo Romero - Fight XviD
 


Code:

General

Format                          : AVI
Format/Info                      : Audio Video Interleave
File size                        : 134 MiB
Duration                        : 11mn 7s
Overall bit rate                : 1 690 Kbps
Writing application              : Nandub v1.0rc2
Writing library                  : VirtualDub build 32593/release

Video
ID                              : 0
Format                          : MPEG-4 Visual
Format profile                  : Advanced Simple@L5
Format settings, BVOP            : Yes
Format settings, QPel            : No
Format settings, GMC            : No warppoints
Format settings, Matrix          : Default (H.263)
Codec ID                        : XVID
Codec ID/Hint                    : XviD
Duration                        : 11mn 7s
Bit rate                        : 1 550 Kbps
Width                            : 624 pixels
Height                          : 352 pixels
Display aspect ratio            : 16:9
Frame rate                      : 29.970 fps
Resolution                      : 8 bits
Colorimetry                      : 4:2:0
Scan type                        : Progressive
Bits/(Pixel*Frame)              : 0.235
Stream size                      : 123 MiB (92%)
Writing library                  : XviD 1.2.1 (UTC 2008-12-04)

Audio
ID                              : 1
Format                          : MPEG Audio
Format version                  : Version 1
Format profile                  : Layer 3
Format_Settings_Mode            : Joint stereo
Format_Settings_ModeExtension    : MS Stereo
Codec ID                        : 55
Codec ID/Hint                    : MP3
Duration                        : 11mn 7s
Bit rate mode                    : Constant
Bit rate                        : 128 Kbps
Channel(s)                      : 2 channels
Sampling rate                    : 48.0 KHz
Stream size                      : 10.2 MiB (8%)
Alignment                        : Split accross interleaves
Interleave, duration            : 33 ms (1.00 video frame)
Interleave, preload duration    : 500 ms





Code:

http://hotfile.com/dl/52422043/f6e2369/SP_R.avi.html

Tehboyd 07-04-2010 01:29 AM

UFC 116 -Krzysztof Soszynski vs Stephan Bonnar- Fight XviD
 


Code:

General

Format                          : AVI
Format/Info                      : Audio Video Interleave
File size                        : 134 MiB
Duration                        : 11mn 7s
Overall bit rate                : 1 690 Kbps
Writing application              : Nandub v1.0rc2
Writing library                  : VirtualDub build 32593/release

Video
ID                              : 0
Format                          : MPEG-4 Visual
Format profile                  : Advanced Simple@L5
Format settings, BVOP            : Yes
Format settings, QPel            : No
Format settings, GMC            : No warppoints
Format settings, Matrix          : Default (H.263)
Codec ID                        : XVID
Codec ID/Hint                    : XviD
Duration                        : 11mn 7s
Bit rate                        : 1 550 Kbps
Width                            : 624 pixels
Height                          : 352 pixels
Display aspect ratio            : 16:9
Frame rate                      : 29.970 fps
Resolution                      : 8 bits
Colorimetry                      : 4:2:0
Scan type                        : Progressive
Bits/(Pixel*Frame)              : 0.235
Stream size                      : 123 MiB (92%)
Writing library                  : XviD 1.2.1 (UTC 2008-12-04)

Audio
ID                              : 1
Format                          : MPEG Audio
Format version                  : Version 1
Format profile                  : Layer 3
Format_Settings_Mode            : Joint stereo
Format_Settings_ModeExtension    : MS Stereo
Codec ID                        : 55
Codec ID/Hint                    : MP3
Duration                        : 11mn 7s
Bit rate mode                    : Constant
Bit rate                        : 128 Kbps
Channel(s)                      : 2 channels
Sampling rate                    : 48.0 KHz
Stream size                      : 10.2 MiB (8%)
Alignment                        : Split accross interleaves
Interleave, duration            : 33 ms (1.00 video frame)
Interleave, preload duration    : 500 ms




Code:

http://hotfile.com/dl/52423984/85e8d2d/KS_SB.avi.html

Tehboyd 07-04-2010 01:41 AM

UFC 116 -Brock Lesnar vs. Shane Carwin -Fight XviD
 


Code:

General

Format                          : AVI
Format/Info                      : Audio Video Interleave
File size                        : 134 MiB
Duration                        : 11mn 7s
Overall bit rate                : 1 690 Kbps
Writing application              : Nandub v1.0rc2
Writing library                  : VirtualDub build 32593/release

Video
ID                              : 0
Format                          : MPEG-4 Visual
Format profile                  : Advanced Simple@L5
Format settings, BVOP            : Yes
Format settings, QPel            : No
Format settings, GMC            : No warppoints
Format settings, Matrix          : Default (H.263)
Codec ID                        : XVID
Codec ID/Hint                    : XviD
Duration                        : 11mn 7s
Bit rate                        : 1 550 Kbps
Width                            : 624 pixels
Height                          : 352 pixels
Display aspect ratio            : 16:9
Frame rate                      : 29.970 fps
Resolution                      : 8 bits
Colorimetry                      : 4:2:0
Scan type                        : Progressive
Bits/(Pixel*Frame)              : 0.235
Stream size                      : 123 MiB (92%)
Writing library                  : XviD 1.2.1 (UTC 2008-12-04)

Audio
ID                              : 1
Format                          : MPEG Audio
Format version                  : Version 1
Format profile                  : Layer 3
Format_Settings_Mode            : Joint stereo
Format_Settings_ModeExtension    : MS Stereo
Codec ID                        : 55
Codec ID/Hint                    : MP3
Duration                        : 11mn 7s
Bit rate mode                    : Constant
Bit rate                        : 128 Kbps
Channel(s)                      : 2 channels
Sampling rate                    : 48.0 KHz
Stream size                      : 10.2 MiB (8%)
Alignment                        : Split accross interleaves
Interleave, duration            : 33 ms (1.00 video frame)
Interleave, preload duration    : 500 ms




Code:

http://hotfile.com/dl/52425384/856bbbc/SC_BL.rar.html

Dj.IcE 07-04-2010 01:52 AM

Full ppv is not far away


All times are GMT -4. The time now is 05:35 AM.

Powered by vBulletin Version 3.6.8 , Copyright ©2000 - 2014, Jelsoft Enterprises Ltd.
SEO by vBSEO 3.3.2