UFC 116 -Brock Lesnar vs. Shane Carwin -Fight XviD - MMA Forum - UFC Forums - UFC Results - MMA Videos
Multimedia Videos Videos from events mentioned at MMA Forum.

Reply

Old 07-03-2010, 04:35 AM   #1 (permalink)
Banned
 
Join Date: Oct 2009
Posts: 973
Dj.IcE is on another level nowDj.IcE is on another level nowDj.IcE is on another level nowDj.IcE is on another level nowDj.IcE is on another level nowDj.IcE is on another level nowDj.IcE is on another level nowDj.IcE is on another level nowDj.IcE is on another level nowDj.IcE is on another level nowDj.IcE is on another level now
HDnet-Inside MMA 2010-July 2

HDnet-Inside MMA 2010-July 2



RS PREMIUM
Code:
http://rapidshare.com/files/404639249/HDnet-Inside_MMA__2010-July_2.rar
HOTFILE
Code:
http://hotfile.com/dl/52253855/6e2207e/HDnet-Inside_MMA__2010-July_2.rar.html
TURBO
Code:
http://turbobit.net/8z49bfl72c34.html
DEPOSITFILES
Code:
http://depositfiles.com/files/xwa1g8s03
Dj.IcE is offline   Reply With Quote
Sponsored Links
Advertisement
 

Old 07-03-2010, 08:40 AM   #2 (permalink)
Flyweight
 
Tehboyd's Avatar
 
Join Date: Mar 2010
Posts: 203
Tehboyd Needs A HugTehboyd Needs A HugTehboyd Needs A HugTehboyd Needs A HugTehboyd Needs A HugTehboyd Needs A HugTehboyd Needs A HugTehboyd Needs A HugTehboyd Needs A HugTehboyd Needs A HugTehboyd Needs A Hug
Shane Carwin - Day Program HD 1280x720



Code:
General

Format                           : MPEG-4
Format profile                   : Base Media / Version 2
Codec ID                         : mp42
File size                        : 107 MiB
Duration                         : 7mn 0s
Overall bit rate                 : 2 135 Kbps


Video
ID                               : 2
Format                           : AVC
Format/Info                      : Advanced Video Codec
Format profile                   : High@L3.1
Format settings, CABAC           : Yes
Format settings, ReFrames        : 3 frames
Codec ID                         : avc1
Codec ID/Info                    : Advanced Video Coding
Duration                         : 7mn 0s
Bit rate mode                    : Variable
Bit rate                         : 2 007 Kbps
Maximum bit rate                 : 3 213 Kbps
Width                            : 1 280 pixels
Height                           : 720 pixels
Display aspect ratio             : 16:9
Frame rate mode                  : Constant
Frame rate                       : 29.970 fps
Resolution                       : 8 bits
Colorimetry                      : 4:2:0
Scan type                        : Progressive
Bits/(Pixel*Frame)               : 0.073
Stream size                      : 101 MiB (94%)

Audio
ID                               : 1
Format                           : AAC
Format/Info                      : Advanced Audio Codec
Format version                   : Version 4
Format profile                   : LC
Format settings, SBR             : No
Codec ID                         : 40
Duration                         : 7mn 0s
Bit rate mode                    : Variable
Bit rate                         : 125 Kbps
Maximum bit rate                 : 138 Kbps
Channel(s)                       : 2 channels
Channel positions                : L R
Sampling rate                    : 44.1 KHz
Stream size                      : 6.25 MiB (6%)

Code:
http://hotfile.com/dl/52288899/d1ac29c/SC_Day.avi.html
Tehboyd is offline   Reply With Quote
Old 07-03-2010, 09:21 AM   #3 (permalink)
MMA Fanatic
 
Join Date: Nov 2009
Posts: 36
Mike Male$h is on a distinguished roadMike Male$h is on a distinguished roadMike Male$h is on a distinguished roadMike Male$h is on a distinguished roadMike Male$h is on a distinguished road
Ive seen this before, its been on youtube for a few months now.
Mike Male$h is offline   Reply With Quote
Old 07-03-2010, 09:56 AM   #4 (permalink)
Flyweight
 
Tehboyd's Avatar
 
Join Date: Mar 2010
Posts: 203
Tehboyd Needs A HugTehboyd Needs A HugTehboyd Needs A HugTehboyd Needs A HugTehboyd Needs A HugTehboyd Needs A HugTehboyd Needs A HugTehboyd Needs A HugTehboyd Needs A HugTehboyd Needs A HugTehboyd Needs A Hug
UFC 116 - Dana White Pre Fight Interview



Velasquez will fight the winner between Carwin and Brock . And the winner between Dos Santos vs . Roy Nelson will fight the winner from Velasquez fight . That's what Dana White said .

"CIGANO" might get the the title shot . All he has to do is knockout Roy Nelson , or just win the Fight at UFC 117 .


Code:
http://hotfile.com/dl/52299857/56617d9/DW_Int.avi.html
Tehboyd is offline   Reply With Quote
Old 07-03-2010, 07:35 PM   #5 (permalink)
Flyweight
 
Tehboyd's Avatar
 
Join Date: Mar 2010
Posts: 203
Tehboyd Needs A HugTehboyd Needs A HugTehboyd Needs A HugTehboyd Needs A HugTehboyd Needs A HugTehboyd Needs A HugTehboyd Needs A HugTehboyd Needs A HugTehboyd Needs A HugTehboyd Needs A HugTehboyd Needs A Hug
UFC 116 - Lesnar vs. Carwin - Open Workout HD 1280x720




Code:
http://hotfile.com/dl/52381122/9a3a054/CL_OW.avi.html
Tehboyd is offline   Reply With Quote
Old 07-04-2010, 01:55 AM   #6 (permalink)
Banned
 
Join Date: Oct 2009
Posts: 973
Dj.IcE is on another level nowDj.IcE is on another level nowDj.IcE is on another level nowDj.IcE is on another level nowDj.IcE is on another level nowDj.IcE is on another level nowDj.IcE is on another level nowDj.IcE is on another level nowDj.IcE is on another level nowDj.IcE is on another level nowDj.IcE is on another level now
UFC.116.ESPN.HDTV.XviD-FreaK / FIGHTS

UFC.116.FIGHTS



UFC•116•Krzysztof.Soszynski.vs.Stephan.Bonnar•XviD •BluntzRip
Code:
http://rapidshare.com/files/404817429/Krzysztof.Soszynski.vs.Stephan.Bonnar.avi
Code:
http://hotfile.com/dl/52420344/8412ac5/Krzysztof.Soszynski.vs.Stephan.Bonnar.avi.html

UFC•116•George.Sotiropoulos.vs.Kurt.Pellegrino•Xvi D•BluntzRip
Code:
http://rapidshare.com/files/404817431/George.Sotiropoulos.vs.Kurt.Pellegrino.avi
Code:
http://hotfile.com/dl/52420345/27c532f/George.Sotiropoulos.vs.Kurt.Pellegrino.avi.html

UFC•116•Chris.Lytle.vs.Matt.Brown•XviD•BluntzRip
Code:
http://rapidshare.com/files/404819257/Chris.Lytle.vs.Matt.Brown.avi
Code:
http://hotfile.com/dl/52421568/8097c77/Chris.Lytle.vs.Matt.Brown.avi.html

UFC•116•Shane Carwin vs Brock Lesnar•XviD•BluntzRip
Code:
http://rapidshare.com/files/404820087/Shane.Carwin.vs.Brock.Lesnar.avi
Code:
http://hotfile.com/dl/52422202/4cdb1a4/Shane.Carwin.vs.Brock.Lesnar.avi.html

Last edited by Dj.IcE : 07-04-2010 at 04:34 AM.
Dj.IcE is offline   Reply With Quote
Old 07-04-2010, 02:15 AM   #7 (permalink)
Flyweight
 
Tehboyd's Avatar
 
Join Date: Mar 2010
Posts: 203
Tehboyd Needs A HugTehboyd Needs A HugTehboyd Needs A HugTehboyd Needs A HugTehboyd Needs A HugTehboyd Needs A HugTehboyd Needs A HugTehboyd Needs A HugTehboyd Needs A HugTehboyd Needs A HugTehboyd Needs A Hug
UFC 116 -Seth Petruzelli vs. Ricardo Romero - Fight XviD



Code:
General

Format                           : AVI
Format/Info                      : Audio Video Interleave
File size                        : 134 MiB
Duration                         : 11mn 7s
Overall bit rate                 : 1 690 Kbps
Writing application              : Nandub v1.0rc2
Writing library                  : VirtualDub build 32593/release

Video
ID                               : 0
Format                           : MPEG-4 Visual
Format profile                   : Advanced Simple@L5
Format settings, BVOP            : Yes
Format settings, QPel            : No
Format settings, GMC             : No warppoints
Format settings, Matrix          : Default (H.263)
Codec ID                         : XVID
Codec ID/Hint                    : XviD
Duration                         : 11mn 7s
Bit rate                         : 1 550 Kbps
Width                            : 624 pixels
Height                           : 352 pixels
Display aspect ratio             : 16:9
Frame rate                       : 29.970 fps
Resolution                       : 8 bits
Colorimetry                      : 4:2:0
Scan type                        : Progressive
Bits/(Pixel*Frame)               : 0.235
Stream size                      : 123 MiB (92%)
Writing library                  : XviD 1.2.1 (UTC 2008-12-04)

Audio
ID                               : 1
Format                           : MPEG Audio
Format version                   : Version 1
Format profile                   : Layer 3
Format_Settings_Mode             : Joint stereo
Format_Settings_ModeExtension    : MS Stereo
Codec ID                         : 55
Codec ID/Hint                    : MP3
Duration                         : 11mn 7s
Bit rate mode                    : Constant
Bit rate                         : 128 Kbps
Channel(s)                       : 2 channels
Sampling rate                    : 48.0 KHz
Stream size                      : 10.2 MiB (8%)
Alignment                        : Split accross interleaves
Interleave, duration             : 33 ms (1.00 video frame)
Interleave, preload duration     : 500 ms




Code:
http://hotfile.com/dl/52422043/f6e2369/SP_R.avi.html
Tehboyd is offline   Reply With Quote
Old 07-04-2010, 02:29 AM   #8 (permalink)
Flyweight
 
Tehboyd's Avatar
 
Join Date: Mar 2010
Posts: 203
Tehboyd Needs A HugTehboyd Needs A HugTehboyd Needs A HugTehboyd Needs A HugTehboyd Needs A HugTehboyd Needs A HugTehboyd Needs A HugTehboyd Needs A HugTehboyd Needs A HugTehboyd Needs A HugTehboyd Needs A Hug
UFC 116 -Krzysztof Soszynski vs Stephan Bonnar- Fight XviD



Code:
General

Format                           : AVI
Format/Info                      : Audio Video Interleave
File size                        : 134 MiB
Duration                         : 11mn 7s
Overall bit rate                 : 1 690 Kbps
Writing application              : Nandub v1.0rc2
Writing library                  : VirtualDub build 32593/release

Video
ID                               : 0
Format                           : MPEG-4 Visual
Format profile                   : Advanced Simple@L5
Format settings, BVOP            : Yes
Format settings, QPel            : No
Format settings, GMC             : No warppoints
Format settings, Matrix          : Default (H.263)
Codec ID                         : XVID
Codec ID/Hint                    : XviD
Duration                         : 11mn 7s
Bit rate                         : 1 550 Kbps
Width                            : 624 pixels
Height                           : 352 pixels
Display aspect ratio             : 16:9
Frame rate                       : 29.970 fps
Resolution                       : 8 bits
Colorimetry                      : 4:2:0
Scan type                        : Progressive
Bits/(Pixel*Frame)               : 0.235
Stream size                      : 123 MiB (92%)
Writing library                  : XviD 1.2.1 (UTC 2008-12-04)

Audio
ID                               : 1
Format                           : MPEG Audio
Format version                   : Version 1
Format profile                   : Layer 3
Format_Settings_Mode             : Joint stereo
Format_Settings_ModeExtension    : MS Stereo
Codec ID                         : 55
Codec ID/Hint                    : MP3
Duration                         : 11mn 7s
Bit rate mode                    : Constant
Bit rate                         : 128 Kbps
Channel(s)                       : 2 channels
Sampling rate                    : 48.0 KHz
Stream size                      : 10.2 MiB (8%)
Alignment                        : Split accross interleaves
Interleave, duration             : 33 ms (1.00 video frame)
Interleave, preload duration     : 500 ms



Code:
http://hotfile.com/dl/52423984/85e8d2d/KS_SB.avi.html
Tehboyd is offline   Reply With Quote
Old 07-04-2010, 02:41 AM   #9 (permalink)
Flyweight
 
Tehboyd's Avatar
 
Join Date: Mar 2010
Posts: 203
Tehboyd Needs A HugTehboyd Needs A HugTehboyd Needs A HugTehboyd Needs A HugTehboyd Needs A HugTehboyd Needs A HugTehboyd Needs A HugTehboyd Needs A HugTehboyd Needs A HugTehboyd Needs A HugTehboyd Needs A Hug
UFC 116 -Brock Lesnar vs. Shane Carwin -Fight XviD



Code:
General

Format                           : AVI
Format/Info                      : Audio Video Interleave
File size                        : 134 MiB
Duration                         : 11mn 7s
Overall bit rate                 : 1 690 Kbps
Writing application              : Nandub v1.0rc2
Writing library                  : VirtualDub build 32593/release

Video
ID                               : 0
Format                           : MPEG-4 Visual
Format profile                   : Advanced Simple@L5
Format settings, BVOP            : Yes
Format settings, QPel            : No
Format settings, GMC             : No warppoints
Format settings, Matrix          : Default (H.263)
Codec ID                         : XVID
Codec ID/Hint                    : XviD
Duration                         : 11mn 7s
Bit rate                         : 1 550 Kbps
Width                            : 624 pixels
Height                           : 352 pixels
Display aspect ratio             : 16:9
Frame rate                       : 29.970 fps
Resolution                       : 8 bits
Colorimetry                      : 4:2:0
Scan type                        : Progressive
Bits/(Pixel*Frame)               : 0.235
Stream size                      : 123 MiB (92%)
Writing library                  : XviD 1.2.1 (UTC 2008-12-04)

Audio
ID                               : 1
Format                           : MPEG Audio
Format version                   : Version 1
Format profile                   : Layer 3
Format_Settings_Mode             : Joint stereo
Format_Settings_ModeExtension    : MS Stereo
Codec ID                         : 55
Codec ID/Hint                    : MP3
Duration                         : 11mn 7s
Bit rate mode                    : Constant
Bit rate                         : 128 Kbps
Channel(s)                       : 2 channels
Sampling rate                    : 48.0 KHz
Stream size                      : 10.2 MiB (8%)
Alignment                        : Split accross interleaves
Interleave, duration             : 33 ms (1.00 video frame)
Interleave, preload duration     : 500 ms



Code:
http://hotfile.com/dl/52425384/856bbbc/SC_BL.rar.html
Tehboyd is offline   Reply With Quote
Old 07-04-2010, 02:52 AM   #10 (permalink)
Banned
 
Join Date: Oct 2009
Posts: 973
Dj.IcE is on another level nowDj.IcE is on another level nowDj.IcE is on another level nowDj.IcE is on another level nowDj.IcE is on another level nowDj.IcE is on another level nowDj.IcE is on another level nowDj.IcE is on another level nowDj.IcE is on another level nowDj.IcE is on another level nowDj.IcE is on another level now
Full ppv is not far away
Dj.IcE is offline   Reply With Quote
Reply



Currently Active Users Viewing This Thread: 1 (0 members and 1 guests)
 
Thread Tools
Display Modes

Posting Rules
You may not post new threads
You may not post replies
You may not post attachments
You may not edit your posts

vB code is On
Smilies are On
[IMG] code is On
HTML code is Off
Trackbacks are Off
Pingbacks are Off
Refbacks are On

VerticalSports
Baseball Forum Golf Forum Boxing Forum Snowmobile Forum
Basketball Forum Soccer Forum MMA Forum PWC Forum
Football Forum Cricket Forum Wrestling Forum ATV Forum
Hockey Forum Volleyball Forum Paintball Forum Snowboarding Forum
Tennis Forum Rugby Forums Lacrosse Forum Skiing Forums
Copyright (C) Verticalscope Inc SEO by vBSEO 3.3.2
Powered by vBulletin Copyright © 2000-2009 Jelsoft Enterprises Limited.
vBCredits v1.4 Copyright ©2007, PixelFX Studios