MMA Forum - UFC Forums - UFC Results - MMA Videos

MMA Forum - UFC Forums - UFC Results - MMA Videos (http://www.mmaforum.com/)
-   Multimedia Videos (http://www.mmaforum.com/multimedia-videos/)
-   -   MMA Connected 2010.07.05. -HDTV XviD (http://www.mmaforum.com/multimedia-videos/78887-mma-connected-2010-07-05-hdtv-xvid.html)

Tehboyd 07-08-2010 03:32 AM

MMA Connected 2010.07.05. -HDTV XviD
 



Code:

General

Format                          : AVI
Format/Info                      : Audio Video Interleave
File size                        : 213 MiB
Duration                        : 22mn 10s
Overall bit rate                : 1 341 Kbps


Video
ID                              : 0
Format                          : MPEG-4 Visual
Format profile                  : Advanced Simple@L5
Format settings, BVOP            : Yes
Format settings, QPel            : No
Format settings, GMC            : No warppoints
Format settings, Matrix          : Default (MPEG)
Codec ID                        : XVID
Codec ID/Hint                    : XviD
Duration                        : 22mn 10s
Bit rate                        : 1 199 Kbps
Width                            : 624 pixels
Height                          : 352 pixels
Display aspect ratio            : 16:9
Frame rate                      : 29.970 fps
Color space                      : YUV
Chroma subsampling              : 4:2:0
Bit depth                        : 8 bits
Scan type                        : Progressive
Bits/(Pixel*Frame)              : 0.182
Stream size                      : 190 MiB (89%)

Audio
ID                              : 1
Format                          : MPEG Audio
Format version                  : Version 1
Format profile                  : Layer 3
Codec ID                        : 55
Codec ID/Hint                    : MP3
Duration                        : 22mn 10s
Bit rate mode                    : Constant
Bit rate                        : 128 Kbps
Channel(s)                      : 2 channels
Sampling rate                    : 48.0 KHz
Video delay                      : 33ms
Stream size                      : 20.3 MiB (10%)
Alignment                        : Aligned on interleaves
Interleave, duration            : 24 ms (0.72 video frame)
Interleave, preload duration    : 504 ms


Code:

http://hotfile.com/dl/53363219/87cc640/M_Con.avi.html


All times are GMT -4. The time now is 08:01 PM.

Powered by vBulletin Version 3.6.8 , Copyright ©2000 - 2014, Jelsoft Enterprises Ltd.
SEO by vBSEO 3.3.2