MMA Forum - UFC Forums - UFC Results - MMA Videos

MMA Forum - UFC Forums - UFC Results - MMA Videos (http://www.mmaforum.com/)
-   Multimedia Videos (http://www.mmaforum.com/multimedia-videos/)
-   -   WEC 48 - Jose Aldo vs Urijah Faber - Fight XviD (http://www.mmaforum.com/multimedia-videos/79238-wec-48-jose-aldo-vs-urijah-faber-fight-xvid.html)

Tehboyd 07-18-2010 03:34 PM

WEC 48 - Jose Aldo vs Urijah Faber - Fight XviD
 



Code:

General

Format                          : AVI
Format/Info                      : Audio Video Interleave
File size                        : 308 MiB
Duration                        : 32mn 54s
Overall bit rate                : 1 307 Kbps


Video
ID                              : 0
Format                          : MPEG-4 Visual
Format profile                  : Advanced Simple@L5
Format settings, BVOP            : Yes
Format settings, QPel            : No
Format settings, GMC            : No warppoints
Format settings, Matrix          : Default (H.263)
Codec ID                        : XVID
Codec ID/Hint                    : XviD
Duration                        : 32mn 54s
Bit rate                        : 1 167 Kbps
Width                            : 624 pixels
Height                          : 352 pixels
Display aspect ratio            : 16:9
Frame rate                      : 29.970 fps
Color space                      : YUV
Chroma subsampling              : 4:2:0
Bit depth                        : 8 bits
Scan type                        : Progressive
Bits/(Pixel*Frame)              : 0.177
Stream size                      : 275 MiB (89%)


Audio
ID                              : 1
Format                          : MPEG Audio
Format version                  : Version 1
Format profile                  : Layer 3
Mode                            : Joint stereo
Mode extension                  : MS Stereo
Codec ID                        : 55
Codec ID/Hint                    : MP3
Duration                        : 32mn 54s
Bit rate mode                    : Constant
Bit rate                        : 128 Kbps
Channel(s)                      : 2 channels
Sampling rate                    : 48.0 KHz
Stream size                      : 30.1 MiB (10%)
Alignment                        : Split accross interleaves
Interleave, duration            : 33 ms (1.00 video frame)
Interleave, preload duration    : 500 ms








Code:

http://hotfile.com/dl/55960130/8f22bb3/A_F.avi.html
This Fight is for all mma fans . :)

holden636 07-19-2010 12:08 AM

Quote:

Originally Posted by Tehboyd (Post 1227004)
This Fight is for all mma fans . :)

This was an awesome fight. Aldo is so freaking good it's scary. I wouldn't want to be Manny.

This video is amazing quality. Thanks for posting this video and all of the other HD videos you've been posting.


All times are GMT -4. The time now is 07:00 PM.

Powered by vBulletin Version 3.6.8 , Copyright ©2000 - 2014, Jelsoft Enterprises Ltd.
SEO by vBSEO 3.3.2