WEC 48 - Jose Aldo vs Urijah Faber - Fight XviD - MMA Forum - UFC Forums - UFC Results - MMA Videos
Multimedia Videos Videos from events mentioned at MMA Forum.

Reply

Old 07-18-2010, 04:34 PM   #1 (permalink)
Flyweight
 
Tehboyd's Avatar
 
Join Date: Mar 2010
Posts: 203
Tehboyd Needs A HugTehboyd Needs A HugTehboyd Needs A HugTehboyd Needs A HugTehboyd Needs A HugTehboyd Needs A HugTehboyd Needs A HugTehboyd Needs A HugTehboyd Needs A HugTehboyd Needs A HugTehboyd Needs A Hug
WEC 48 - Jose Aldo vs Urijah Faber - Fight XviD




Code:
General

Format                           : AVI
Format/Info                      : Audio Video Interleave
File size                        : 308 MiB
Duration                         : 32mn 54s
Overall bit rate                 : 1 307 Kbps


Video
ID                               : 0
Format                           : MPEG-4 Visual
Format profile                   : Advanced Simple@L5
Format settings, BVOP            : Yes
Format settings, QPel            : No
Format settings, GMC             : No warppoints
Format settings, Matrix          : Default (H.263)
Codec ID                         : XVID
Codec ID/Hint                    : XviD
Duration                         : 32mn 54s
Bit rate                         : 1 167 Kbps
Width                            : 624 pixels
Height                           : 352 pixels
Display aspect ratio             : 16:9
Frame rate                       : 29.970 fps
Color space                      : YUV
Chroma subsampling               : 4:2:0
Bit depth                        : 8 bits
Scan type                        : Progressive
Bits/(Pixel*Frame)               : 0.177
Stream size                      : 275 MiB (89%)


Audio
ID                               : 1
Format                           : MPEG Audio
Format version                   : Version 1
Format profile                   : Layer 3
Mode                             : Joint stereo
Mode extension                   : MS Stereo
Codec ID                         : 55
Codec ID/Hint                    : MP3
Duration                         : 32mn 54s
Bit rate mode                    : Constant
Bit rate                         : 128 Kbps
Channel(s)                       : 2 channels
Sampling rate                    : 48.0 KHz
Stream size                      : 30.1 MiB (10%)
Alignment                        : Split accross interleaves
Interleave, duration             : 33 ms (1.00 video frame)
Interleave, preload duration     : 500 ms







Code:
http://hotfile.com/dl/55960130/8f22bb3/A_F.avi.html
This Fight is for all mma fans .
Tehboyd is offline   Reply With Quote
Sponsored Links
Advertisement
 

Old 07-19-2010, 01:08 AM   #2 (permalink)
MMA Fanatic
 
holden636's Avatar
 
Join Date: Oct 2007
Location: North Carolina
Posts: 39
holden636 will become famous soon enoughholden636 will become famous soon enoughholden636 will become famous soon enoughholden636 will become famous soon enoughholden636 will become famous soon enoughholden636 will become famous soon enoughholden636 will become famous soon enoughholden636 will become famous soon enoughholden636 will become famous soon enoughholden636 will become famous soon enoughholden636 will become famous soon enough
Quote:
Originally Posted by Tehboyd View Post
This Fight is for all mma fans .
This was an awesome fight. Aldo is so freaking good it's scary. I wouldn't want to be Manny.

This video is amazing quality. Thanks for posting this video and all of the other HD videos you've been posting.
holden636 is offline   Reply With Quote
Reply



Currently Active Users Viewing This Thread: 1 (0 members and 1 guests)
 
Thread Tools
Display Modes

Posting Rules
You may not post new threads
You may not post replies
You may not post attachments
You may not edit your posts

vB code is On
Smilies are On
[IMG] code is On
HTML code is Off
Trackbacks are Off
Pingbacks are Off
Refbacks are On

VerticalSports
Baseball Forum Golf Forum Boxing Forum Snowmobile Forum
Basketball Forum Soccer Forum MMA Forum PWC Forum
Football Forum Cricket Forum Wrestling Forum ATV Forum
Hockey Forum Volleyball Forum Paintball Forum Snowboarding Forum
Tennis Forum Rugby Forums Lacrosse Forum Skiing Forums
Copyright (C) Verticalscope Inc SEO by vBSEO 3.3.2
Powered by vBulletin Copyright 2000-2009 Jelsoft Enterprises Limited.
vBCredits v1.4 Copyright ©2007, PixelFX Studios