MMAthletics ep12-July.19th.2010 - XviD - MMA Forum - UFC Forums - UFC Results - MMA Videos
Multimedia Videos Videos from events mentioned at MMA Forum.

Reply

Old 07-20-2010, 11:58 AM   #1 (permalink)
Banned
 
Join Date: Oct 2009
Posts: 973
Dj.IcE is on another level nowDj.IcE is on another level nowDj.IcE is on another level nowDj.IcE is on another level nowDj.IcE is on another level nowDj.IcE is on another level nowDj.IcE is on another level nowDj.IcE is on another level nowDj.IcE is on another level nowDj.IcE is on another level nowDj.IcE is on another level now
MMAthletics.ep12-July.19th.2010.XviD-UPiNSMOKE

MMAthletics.ep12-July.19th.2010.XviD-UPiNSMOKE



Hosts Rachelle Leah and Jay Glazer take you behind the scenes of the world of MMA, introducing you to offseason NFL players and popular UFC fighters, as well as the gyms and training techniques these athletes are using. MMAthletics is your VIP pass for inside access to the Octagon.


Code:
http://i25.tinypic.com/2irqbmo.jpg
HOTFILE
Code:
http://hotfile.com/dl/56363569/b8508c2/MMAthletics.ep12-July.19th.2010.XviD-UPiNSMOKE.avi.html
Dj.IcE is offline   Reply With Quote
Sponsored Links
Advertisement
 

Old 07-20-2010, 01:34 PM   #2 (permalink)
Flyweight
 
Tehboyd's Avatar
 
Join Date: Mar 2010
Posts: 203
Tehboyd Needs A HugTehboyd Needs A HugTehboyd Needs A HugTehboyd Needs A HugTehboyd Needs A HugTehboyd Needs A HugTehboyd Needs A HugTehboyd Needs A HugTehboyd Needs A HugTehboyd Needs A HugTehboyd Needs A Hug
MMAthletics ep12-July.19th.2010 - XviD


Code:
General

Format                           : AVI
Format/Info                      : Audio Video Interleave
File size                        : 108 MiB
Duration                         : 18mn 40s
Overall bit rate                 : 805 Kbps


Video
ID                               : 0
Format                           : MPEG-4 Visual
Format profile                   : Simple@L3
Format settings, BVOP            : No
Format settings, QPel            : No
Format settings, GMC             : No warppoints
Format settings, Matrix          : Default (H.263)
Codec ID                         : XVID
Codec ID/Hint                    : XviD
Duration                         : 18mn 40s
Bit rate                         : 697 Kbps
Width                            : 624 pixels
Height                           : 352 pixels
Display aspect ratio             : 16:9
Frame rate                       : 23.976 fps
Color space                      : YUV
Chroma subsampling               : 4:2:0
Bit depth                        : 8 bits
Scan type                        : Progressive
Bits/(Pixel*Frame)               : 0.132
Stream size                      : 93.1 MiB (87%)


Audio
ID                               : 1
Format                           : MPEG Audio
Format version                   : Version 1
Format profile                   : Layer 3
Mode                             : Joint stereo
Mode extension                   : MS Stereo
Codec ID                         : 55
Codec ID/Hint                    : MP3
Duration                         : 18mn 40s
Bit rate mode                    : Constant
Bit rate                         : 96.0 Kbps
Channel(s)                       : 2 channels
Sampling rate                    : 44.1 KHz
Stream size                      : 12.8 MiB (12%)


Code:
http://hotfile.com/dl/56382287/792f789/M_atl.avi.html
Tehboyd is offline   Reply With Quote
Reply



Currently Active Users Viewing This Thread: 1 (0 members and 1 guests)
 
Thread Tools
Display Modes

Posting Rules
You may not post new threads
You may not post replies
You may not post attachments
You may not edit your posts

vB code is On
Smilies are On
[IMG] code is On
HTML code is Off
Trackbacks are Off
Pingbacks are Off
Refbacks are On

VerticalSports
Baseball Forum Golf Forum Boxing Forum Snowmobile Forum
Basketball Forum Soccer Forum MMA Forum PWC Forum
Football Forum Cricket Forum Wrestling Forum ATV Forum
Hockey Forum Volleyball Forum Paintball Forum Snowboarding Forum
Tennis Forum Rugby Forums Lacrosse Forum Skiing Forums
Copyright (C) Verticalscope Inc SEO by vBSEO 3.3.2
Powered by vBulletin Copyright © 2000-2009 Jelsoft Enterprises Limited.
vBCredits v1.4 Copyright ©2007, PixelFX Studios