MMAthletics ep12-July.19th.2010 - XviD - MMA Forum - UFC Forums - UFC Results - MMA Videos
Multimedia Videos Videos from events mentioned at MMA Forum.

User Tag List

LinkBack Thread Tools Display Modes
post #1 of 2 (permalink) Old 07-20-2010, 11:58 AM Thread Starter
Join Date: Oct 2009
Posts: 973
Mentioned: 0 Post(s)
Tagged: 0 Thread(s)
Quoted: 0 Post(s)


Hosts Rachelle Leah and Jay Glazer take you behind the scenes of the world of MMA, introducing you to offseason NFL players and popular UFC fighters, as well as the gyms and training techniques these athletes are using. MMAthletics is your VIP pass for inside access to the Octagon.

Dj.IcE is offline  
Sponsored Links
post #2 of 2 (permalink) Old 07-20-2010, 01:34 PM
Tehboyd's Avatar
Join Date: Mar 2010
Posts: 203
Mentioned: 0 Post(s)
Tagged: 0 Thread(s)
Quoted: 0 Post(s)
MMAthletics ep12-July.19th.2010 - XviD


Format                           : AVI
Format/Info                      : Audio Video Interleave
File size                        : 108 MiB
Duration                         : 18mn 40s
Overall bit rate                 : 805 Kbps

ID                               : 0
Format                           : MPEG-4 Visual
Format profile                   : Simple@L3
Format settings, BVOP            : No
Format settings, QPel            : No
Format settings, GMC             : No warppoints
Format settings, Matrix          : Default (H.263)
Codec ID                         : XVID
Codec ID/Hint                    : XviD
Duration                         : 18mn 40s
Bit rate                         : 697 Kbps
Width                            : 624 pixels
Height                           : 352 pixels
Display aspect ratio             : 16:9
Frame rate                       : 23.976 fps
Color space                      : YUV
Chroma subsampling               : 4:2:0
Bit depth                        : 8 bits
Scan type                        : Progressive
Bits/(Pixel*Frame)               : 0.132
Stream size                      : 93.1 MiB (87%)

ID                               : 1
Format                           : MPEG Audio
Format version                   : Version 1
Format profile                   : Layer 3
Mode                             : Joint stereo
Mode extension                   : MS Stereo
Codec ID                         : 55
Codec ID/Hint                    : MP3
Duration                         : 18mn 40s
Bit rate mode                    : Constant
Bit rate                         : 96.0 Kbps
Channel(s)                       : 2 channels
Sampling rate                    : 44.1 KHz
Stream size                      : 12.8 MiB (12%)

Tehboyd is offline  

Quick Reply

Register Now

In order to be able to post messages on the MMA Forum - UFC Forums - UFC Results - MMA Videos forums, you must first register.
Please enter your desired user name, your email address and other required details in the form below.

User Name:
Please enter a password for your user account. Note that passwords are case-sensitive.


Confirm Password:
Email Address
Please enter a valid email address for yourself.

Email Address:


Human Verification

In order to verify that you are a human and not a spam bot, please enter the answer into the following box below based on the instructions contained in the graphic.

Currently Active Users Viewing This Thread: 1 (0 members and 1 guests)
Thread Tools
Show Printable Version Show Printable Version
Email this Page Email this Page
Display Modes
Linear Mode Linear Mode

Posting Rules  
You may post new threads
You may post replies
You may not post attachments
You may not edit your posts

BB code is On
Smilies are On
[IMG] code is On
HTML code is Off
Trackbacks are Off
Pingbacks are Off
Refbacks are On

For the best viewing experience please update your browser to Google Chrome