MMA Forum - UFC Forums - UFC Results - MMA Videos

MMA Forum - UFC Forums - UFC Results - MMA Videos (http://www.mmaforum.com/)
-   Multimedia Videos (http://www.mmaforum.com/multimedia-videos/)
-   -   UFC 117 - Silva vs. Sonnen Preview - HD 720p (http://www.mmaforum.com/multimedia-videos/79381-ufc-117-silva-vs-sonnen-preview-hd-720p.html)

Tehboyd 07-22-2010 11:50 AM

UFC 117 - Silva vs. Sonnen Preview - HD 720p
 


Code:

General
Format                          : MPEG-4
Format profile                  : Base Media / Version 2
Codec ID                        : mp42
File size                        : 148 MiB
Duration                        : 9mn 40s
Overall bit rate                : 2 144 Kbps


Video
ID                              : 2
Format                          : AVC
Format/Info                      : Advanced Video Codec
Format profile                  : High@L3.1
Format settings, CABAC          : Yes
Format settings, ReFrames        : 1 frame
Format settings, GOP            : M=1, N=17
Codec ID                        : avc1
Codec ID/Info                    : Advanced Video Coding
Duration                        : 9mn 40s
Bit rate mode                    : Variable
Bit rate                        : 2 017 Kbps
Maximum bit rate                : 4 785 Kbps
Width                            : 1 280 pixels
Height                          : 720 pixels
Display aspect ratio            : 16:9
Frame rate mode                  : Constant
Frame rate                      : 29.917 fps
Color space                      : YUV
Chroma subsampling              : 4:2:0
Bit depth                        : 8 bits
Scan type                        : Progressive
Bits/(Pixel*Frame)              : 0.073
Stream size                      : 139 MiB (94%)


Audio
ID                              : 1
Format                          : AAC
Format/Info                      : Advanced Audio Codec
Format version                  : Version 4
Format profile                  : LC
Format settings, SBR            : No
Codec ID                        : 40
Duration                        : 9mn 40s
Bit rate mode                    : Variable
Bit rate                        : 124 Kbps
Maximum bit rate                : 198 Kbps
Channel(s)                      : 2 channels
Channel positions                : Front: L R
Sampling rate                    : 44.1 KHz
Stream size                      : 8.60 MiB (6%)





Code:

http://hotfile.com/dl/56794745/83d977b/U_Pre.mp4.html


All times are GMT -4. The time now is 10:06 PM.

Powered by vBulletin Version 3.6.8 , Copyright ©2000 - 2014, Jelsoft Enterprises Ltd.
SEO by vBSEO 3.3.2