UFC 117 - Silva vs. Sonnen Preview - HD 720p - MMA Forum - UFC Forums - UFC Results - MMA Videos
Multimedia Videos Videos from events mentioned at MMA Forum.

LinkBack Thread Tools Display Modes
post #1 of 1 (permalink) Old 07-22-2010, 11:50 AM Thread Starter
Tehboyd's Avatar
Join Date: Mar 2010
Posts: 203
UFC 117 - Silva vs. Sonnen Preview - HD 720p

Format                           : MPEG-4
Format profile                   : Base Media / Version 2
Codec ID                         : mp42
File size                        : 148 MiB
Duration                         : 9mn 40s
Overall bit rate                 : 2 144 Kbps

ID                               : 2
Format                           : AVC
Format/Info                      : Advanced Video Codec
Format profile                   : High@L3.1
Format settings, CABAC           : Yes
Format settings, ReFrames        : 1 frame
Format settings, GOP             : M=1, N=17
Codec ID                         : avc1
Codec ID/Info                    : Advanced Video Coding
Duration                         : 9mn 40s
Bit rate mode                    : Variable
Bit rate                         : 2 017 Kbps
Maximum bit rate                 : 4 785 Kbps
Width                            : 1 280 pixels
Height                           : 720 pixels
Display aspect ratio             : 16:9
Frame rate mode                  : Constant
Frame rate                       : 29.917 fps
Color space                      : YUV
Chroma subsampling               : 4:2:0
Bit depth                        : 8 bits
Scan type                        : Progressive
Bits/(Pixel*Frame)               : 0.073
Stream size                      : 139 MiB (94%)

ID                               : 1
Format                           : AAC
Format/Info                      : Advanced Audio Codec
Format version                   : Version 4
Format profile                   : LC
Format settings, SBR             : No
Codec ID                         : 40
Duration                         : 9mn 40s
Bit rate mode                    : Variable
Bit rate                         : 124 Kbps
Maximum bit rate                 : 198 Kbps
Channel(s)                       : 2 channels
Channel positions                : Front: L R
Sampling rate                    : 44.1 KHz
Stream size                      : 8.60 MiB (6%)

Tehboyd is offline  

Quick Reply

Register Now

In order to be able to post messages on the MMA Forum - UFC Forums - UFC Results - MMA Videos forums, you must first register.
Please enter your desired user name, your email address and other required details in the form below.

User Name:
Please enter a password for your user account. Note that passwords are case-sensitive.


Confirm Password:
Email Address
Please enter a valid email address for yourself.

Email Address:


Human Verification

In order to verify that you are a human and not a spam bot, please enter the answer into the following box below based on the instructions contained in the graphic.

Currently Active Users Viewing This Thread: 1 (0 members and 1 guests)
Thread Tools
Show Printable Version Show Printable Version
Email this Page Email this Page
Display Modes
Linear Mode Linear Mode

Posting Rules  
You may post new threads
You may post replies
You may not post attachments
You may not edit your posts

BB code is On
Smilies are On
[IMG] code is On
HTML code is Off
Trackbacks are Off
Pingbacks are Off
Refbacks are On

For the best viewing experience please update your browser to Google Chrome