MMA.Live.2010.07.23.HDTV.XviD-BOV - MMA Forum - UFC Forums - UFC Results - MMA Videos
Multimedia Videos Videos from events mentioned at MMA Forum.

Reply

Old 07-23-2010, 01:11 AM   #1 (permalink)
Banned
 
Join Date: Oct 2009
Posts: 973
Dj.IcE is on another level nowDj.IcE is on another level nowDj.IcE is on another level nowDj.IcE is on another level nowDj.IcE is on another level nowDj.IcE is on another level nowDj.IcE is on another level nowDj.IcE is on another level nowDj.IcE is on another level nowDj.IcE is on another level nowDj.IcE is on another level now
MMA.Live.2010.07.23.HDTV.XviD-BOV

MMA.Live.2010.07.23.HDTV.XviD-BOV



Code:
=[ Showdate     - 23.07.2010
 =[ Releasedate  - 23.07.2010
 =[ Genre        - MMA/Talkshow
 =[ Source       - HDTV
 =[ Language     - English
 =[ Format       - XviD
 =[ Resolution   - 624x352
 =[ Bitrate      - 954 kBit/s
 =[ Framerate    - 25.000 FPS
 =[ Audio        - VBR MP3
 =[ Runtime      - 28 Min 32 Sec
 =[ Rarfiles     - 17x15MB
HOTFILE
Code:
http://hotfile.com/dl/56909965/91990ce/bov-mma.live.2010.07.23.hdtv.xvid.avi.html
TURBO
Code:
http://turbobit.net/e9p4p1m66qtn.html
Dj.IcE is offline   Reply With Quote
Sponsored Links
Advertisement
 

Old 07-23-2010, 04:20 PM   #2 (permalink)
Flyweight
 
Tehboyd's Avatar
 
Join Date: Mar 2010
Posts: 203
Tehboyd Needs A HugTehboyd Needs A HugTehboyd Needs A HugTehboyd Needs A HugTehboyd Needs A HugTehboyd Needs A HugTehboyd Needs A HugTehboyd Needs A HugTehboyd Needs A HugTehboyd Needs A HugTehboyd Needs A Hug
MMA Live 2010.07.23 - HDTV XviD



Code:
General
Complete name                    : C:\Downloads\M_live.avi
Format                           : AVI
Format/Info                      : Audio Video Interleave
File size                        : 234 MiB
Duration                         : 28mn 32s
Overall bit rate                 : 1 147 Kbps


Video
ID                               : 0
Format                           : MPEG-4 Visual
Format profile                   : Advanced Simple@L5
Format settings, BVOP            : Yes
Format settings, QPel            : No
Format settings, GMC             : No warppoints
Format settings, Matrix          : Default (H.263)
Codec ID                         : XVID
Codec ID/Hint                    : XviD
Duration                         : 28mn 32s
Bit rate                         : 1 012 Kbps
Width                            : 624 pixels
Height                           : 352 pixels
Display aspect ratio             : 16:9
Frame rate                       : 25.000 fps
Color space                      : YUV
Chroma subsampling               : 4:2:0
Bit depth                        : 8 bits
Scan type                        : Progressive
Bits/(Pixel*Frame)               : 0.184
Stream size                      : 207 MiB (88%)


Audio
ID                               : 1
Format                           : MPEG Audio
Format version                   : Version 1
Format profile                   : Layer 3
Mode                             : Joint stereo
Mode extension                   : MS Stereo
Codec ID                         : 55
Codec ID/Hint                    : MP3
Duration                         : 28mn 32s
Bit rate mode                    : Variable
Bit rate                         : 122 Kbps
Channel(s)                       : 2 channels
Sampling rate                    : 44.1 KHz
Stream size                      : 24.8 MiB (11%)
Alignment                        : Aligned on interleaves
Interleave, duration             : 26 ms (0.65 video frame)
Interleave, preload duration     : 544 ms






Code:
http://hotfile.com/dl/57020082/75a5206/M_live.avi.html
Tehboyd is offline   Reply With Quote
Reply



Currently Active Users Viewing This Thread: 1 (0 members and 1 guests)
 
Thread Tools
Display Modes

Posting Rules
You may not post new threads
You may not post replies
You may not post attachments
You may not edit your posts

vB code is On
Smilies are On
[IMG] code is On
HTML code is Off
Trackbacks are Off
Pingbacks are Off
Refbacks are On

VerticalSports
Baseball Forum Golf Forum Boxing Forum Snowmobile Forum
Basketball Forum Soccer Forum MMA Forum PWC Forum
Football Forum Cricket Forum Wrestling Forum ATV Forum
Hockey Forum Volleyball Forum Paintball Forum Snowboarding Forum
Tennis Forum Rugby Forums Lacrosse Forum Skiing Forums
Copyright (C) Verticalscope Inc SEO by vBSEO 3.3.2
Powered by vBulletin Copyright © 2000-2009 Jelsoft Enterprises Limited.
vBCredits v1.4 Copyright ©2007, PixelFX Studios