MMA Forum - UFC Forums - UFC Results - MMA Videos

MMA Forum - UFC Forums - UFC Results - MMA Videos (http://www.mmaforum.com/)
-   Multimedia Videos (http://www.mmaforum.com/multimedia-videos/)
-   -   UFC 64-Anderson Silva vs. Rich Franklin 1 (http://www.mmaforum.com/multimedia-videos/79515-ufc-64-anderson-silva-vs-rich-franklin-1-a.html)

Tehboyd 07-25-2010 03:49 PM

UFC 64-Anderson Silva vs. Rich Franklin 1
 


Code:

General

Format                          : AVI
Format/Info                      : Audio Video Interleave
File size                        : 103 MiB
Duration                        : 6mn 24s
Overall bit rate                : 2 243 Kbps


Video
ID                              : 0
Format                          : MPEG-4 Visual
Format settings, BVOP            : Yes
Format settings, QPel            : No
Format settings, GMC            : No warppoints
Format settings, Matrix          : Default (H.263)
Muxing mode                      : Packed bitstream
Codec ID                        : DX50
Codec ID/Hint                    : DivX 5
Duration                        : 6mn 24s
Bit rate                        : 2 114 Kbps
Width                            : 640 pixels
Height                          : 480 pixels
Display aspect ratio            : 4:3
Frame rate                      : 29.970 fps
Color space                      : YUV
Chroma subsampling              : 4:2:0
Bit depth                        : 8 bits
Scan type                        : Progressive
Bits/(Pixel*Frame)              : 0.230
Stream size                      : 96.9 MiB (94%)


Audio
ID                              : 1
Format                          : MPEG Audio
Format version                  : Version 1
Format profile                  : Layer 3
Mode                            : Joint stereo
Mode extension                  : MS Stereo
Codec ID                        : 55
Codec ID/Hint                    : MP3
Duration                        : 6mn 24s
Bit rate mode                    : Variable
Bit rate                        : 118 Kbps
Channel(s)                      : 2 channels
Sampling rate                    : 44.1 KHz
Stream size                      : 5.39 MiB (5%)
Alignment                        : Split accross interleaves
Interleave, duration            : 33 ms (1.00 video frame)
Interleave, preload duration    : 510 ms






Code:

http://hotfile.com/dl/57482297/85d829e/AS_RF1.avi.html


All times are GMT -4. The time now is 08:57 PM.

Powered by vBulletin Version 3.6.8 , Copyright ©2000 - 2014, Jelsoft Enterprises Ltd.
SEO by vBSEO 3.3.2