MMA Forum - UFC Forums - UFC Results - MMA Videos

MMA Forum - UFC Forums - UFC Results - MMA Videos (http://www.mmaforum.com/)
-   Multimedia Videos (http://www.mmaforum.com/multimedia-videos/)
-   -   UFC 118 - Edgard vs Penn II-Full Event XviD (http://www.mmaforum.com/multimedia-videos/80993-ufc-118-edgard-vs-penn-ii-full-event-xvid.html)

Tehboyd 08-29-2010 06:39 AM

UFC 118 - Edgard vs Penn II-Full Event XviD
 


Code:

General

Format                          : AVI
Format/Info                      : Audio Video Interleave
File size                        : 1.48 GiB
Duration                        : 1h 0mn
Overall bit rate                : 3 481 Kbps


Video
ID                              : 0
Format                          : MPEG-4 Visual
Format profile                  : Advanced Simple@L5
Format settings, BVOP            : Yes
Format settings, QPel            : No
Format settings, GMC            : No warppoints
Format settings, Matrix          : Default (MPEG)
Codec ID                        : XVID
Codec ID/Hint                    : XviD
Duration                        : 1h 0mn
Bit rate                        : 1 049 Kbps
Width                            : 640 pixels
Height                          : 360 pixels
Display aspect ratio            : 16:9
Frame rate                      : 29.970 fps
Color space                      : YUV
Chroma subsampling              : 4:2:0
Bit depth                        : 8 bits
Scan type                        : Progressive
Bits/(Pixel*Frame)              : 0.152
Stream size                      : 456 MiB (30%)


Audio
ID                              : 1
Format                          : MPEG Audio
Format version                  : Version 1
Format profile                  : Layer 3
Codec ID                        : 55
Codec ID/Hint                    : MP3
Duration                        : 2mn 9s
Bit rate mode                    : Constant
Bit rate                        : 128 Kbps
Channel(s)                      : 2 channels
Sampling rate                    : 48.0 KHz
Stream size                      : 1.98 MiB (0%)
Alignment                        : Aligned on interleaves
Interleave, duration            : 675 ms (20.23 video frames)








Code:

http://hotfile.com/dl/65491712/0a0213b/U.part1.rar.html
http://hotfile.com/dl/65492513/dba7a07/U.part2.rar.html
http://hotfile.com/dl/65490828/b7f64bb/U.part3.rar.html
http://hotfile.com/dl/65487753/07ad7b0/U.part4.rar.html



All times are GMT -4. The time now is 05:29 AM.

Powered by vBulletin Version 3.6.8 , Copyright ©2000 - 2014, Jelsoft Enterprises Ltd.
SEO by vBSEO 3.3.2