MMA Forum - UFC Forums - UFC Results - MMA Videos

MMA Forum - UFC Forums - UFC Results - MMA Videos (http://www.mmaforum.com/)
-   Multimedia Videos (http://www.mmaforum.com/multimedia-videos/)
-   -   Inside.MMA.2011.03.18.HDTV.XviD-JR (http://www.mmaforum.com/multimedia-videos/88980-inside-mma-2011-03-18-hdtv-xvid-jr.html)

Dj.IcE 03-19-2011 01:36 AM

Inside.MMA.2011.03.18.HDTV.XviD-JR
 
Inside.MMA.2011.03.18.HDTV.XviD-JR



Quote:

Detailed Analysis of: Inside.MMA.2011.03.18.HDTV.XviD-JR.avi

General Complete name : Inside.MMA.2011.03.18.HDTV.XviD-JR.avi
Format : AVI
Format/Info : Audio Video Interleave
File size : 589 MiB
Duration : 54mn 27s
Overall bit rate : 1 513 Kbps

Video ID : 0
Format : MPEG-4 Visual
Format profile : Advanced Simple@L5
Format settings, BVOP : Yes
Format settings, QPel : No
Format settings, GMC : No warppoints
Format settings, Matrix : Default (MPEG)
Codec ID : XVID
Codec ID/Hint : XviD
Duration : 54mn 27s
Bit rate : 1 307 Kbps
Width : 624 pixels
Height : 352 pixels
Display aspect ratio : 16:9
Frame rate : 29.970 fps
Color space : YUV
Chroma subsampling : 4:2:0
Bit depth : 8 bits
Scan type : Progressive
Compression mode : Lossy
Bits/(Pixel*Frame) : 0.199
Stream size : 509 MiB (86%)
Writing library : XviD 1.1.2 (UTC 2006-11-01)

Audio ID : 1
Format : MPEG Audio
Format version : Version 1
Format profile : Layer 3
Codec ID : 55
Codec ID/Hint : MP3
Duration : 54mn 27s
Bit rate mode : Constant
Bit rate : 192 Kbps
Channel(s) : 2 channels
Sampling rate : 48.0 KHz
Compression mode : Lossy
Video delay : 33ms
Stream size : 74.8 MiB (13%)
Alignment : Aligned on interleaves
Interleave, duration : 24 ms (0.72 video frame)
Interleave, preload duration : 504 ms
SCREENS
Code:

http://lulzimg.com/i15/75d775.jpg
HOTFILE
Code:

http://hotfile.com/dl/110849317/9277e8c/Inside.MMA.2011.03.18.HDTV.XviD-JR.avi.html
FILESERVE
Code:

http://www.fileserve.com/file/qX2ab9y/Inside.MMA.2011.03.18.HDTV.XviD-JR.avi
USERSHARE
Code:

http://www.usershare.net/ed90dfrz7tug/Inside.MMA.2011.03.18.HDTV.XviD-JR.avi
FILESONIC
Code:

http://www.filesonic.com/file/284074334


All times are GMT -4. The time now is 06:33 PM.

Powered by vBulletin Version 3.6.8 , Copyright ©2000 - 2014, Jelsoft Enterprises Ltd.
SEO by vBSEO 3.3.2