HBO Boxing Amir Khan vs Zab Judah HDTV x264-EViLCREW - MMA Forum - UFC Forums - UFC Results - MMA Videos
Multimedia Videos Videos from events mentioned at MMA Forum.

 
LinkBack Thread Tools Display Modes
post #1 of 1 (permalink) Old 07-23-2011, 11:42 PM Thread Starter
Banned
 
Join Date: Oct 2009
Posts: 973
                     
HBO Boxing Amir Khan vs Zab Judah HDTV x264-EViLCREW

HBO Boxing Amir Khan vs Zab Judah HDTV x264-EViLCREW






Quote:
General
Complete name : HBO.Boxing.Khan.vs.Judah.HDTV.x264-EViLCREW
Format : Flash Video
File size : 579 MiB
Duration : 37mn 50s
Overall bit rate : 2 139 Kbps

Video
Format : AVC
Format/Info : Advanced Video Codec
Format profile : Baseline@L5.1
Format settings, CABAC : No
Format settings, ReFrames : 3 frames
Codec ID : 7
Duration : 37mn 50s
Bit rate mode : Constant
Bit rate : 2 000 Kbps
Width : 640 pixels
Height : 370 pixels
Display aspect ratio : 16:9
Frame rate : 30.000 fps
Stream size : 519 MiB (90%)

Audio
Format : MPEG Audio
Format profile : Layer 3
Codec ID : 2
Codec ID/Hint : MP3
Duration : 37mn 50s
Bit rate mode : Constant
Bit rate : 128 Kbps
Channel(s) : 2 channels
Sampling rate : 44.1 KHz
Compression mode : Lossy
Stream size : 34.6 MiB (6%)
Code:
FILESERVE
http://www.fileserve.com/file/Fecxkmm/HBO.Boxing.Khan.vs.Judah.HDTV.x264-EViLCREW.Fight-BB.Flv

FILESONIC
http://www.filesonic.com/file/1511833204/HBO.Boxing.Khan.vs.Judah.HDTV.x264-EViLCREW.Fight-BB.Flv

WUPLOAD
http://www.wupload.com/file/65521591/HBO.Boxing.Khan.vs.Judah.HDTV.x264-EViLCREW.Fight-BB.Flv

BITSHARE
http://bitshare.com/files/zlisbwpe/HBO.Boxing.Khan.vs.Judah.HDTV.x264-EViLCREW.Fight-BB.Flv.html
Dj.IcE is offline  
Reply

Quick Reply
Message:
Options

Register Now



In order to be able to post messages on the MMA Forum - UFC Forums - UFC Results - MMA Videos forums, you must first register.
Please enter your desired user name, your email address and other required details in the form below.

User Name:
Password
Please enter a password for your user account. Note that passwords are case-sensitive.

Password:


Confirm Password:
Email Address
Please enter a valid email address for yourself.

Email Address:
OR

Log-in









Human Verification

In order to verify that you are a human and not a spam bot, please enter the answer into the following box below based on the instructions contained in the graphic.



Currently Active Users Viewing This Thread: 1 (0 members and 1 guests)
 
Thread Tools
Show Printable Version Show Printable Version
Email this Page Email this Page
Display Modes
Linear Mode Linear Mode



Posting Rules  
You may post new threads
You may post replies
You may not post attachments
You may not edit your posts

BB code is On
Smilies are On
[IMG] code is On
HTML code is Off
Trackbacks are Off
Pingbacks are Off
Refbacks are On

 
For the best viewing experience please update your browser to Google Chrome