HBO Boxing Amir Khan vs Zab Judah HDTV x264-EViLCREW - MMA Forum - UFC Forums - UFC Results - MMA Videos
Multimedia Videos Videos from events mentioned at MMA Forum.

Reply

Old 07-24-2011, 12:42 AM   #1 (permalink)
Banned
 
Join Date: Oct 2009
Posts: 973
Dj.IcE is on another level nowDj.IcE is on another level nowDj.IcE is on another level nowDj.IcE is on another level nowDj.IcE is on another level nowDj.IcE is on another level nowDj.IcE is on another level nowDj.IcE is on another level nowDj.IcE is on another level nowDj.IcE is on another level nowDj.IcE is on another level now
HBO Boxing Amir Khan vs Zab Judah HDTV x264-EViLCREW

HBO Boxing Amir Khan vs Zab Judah HDTV x264-EViLCREW






Quote:
General
Complete name : HBO.Boxing.Khan.vs.Judah.HDTV.x264-EViLCREW
Format : Flash Video
File size : 579 MiB
Duration : 37mn 50s
Overall bit rate : 2 139 Kbps

Video
Format : AVC
Format/Info : Advanced Video Codec
Format profile : Baseline@L5.1
Format settings, CABAC : No
Format settings, ReFrames : 3 frames
Codec ID : 7
Duration : 37mn 50s
Bit rate mode : Constant
Bit rate : 2 000 Kbps
Width : 640 pixels
Height : 370 pixels
Display aspect ratio : 16:9
Frame rate : 30.000 fps
Stream size : 519 MiB (90%)

Audio
Format : MPEG Audio
Format profile : Layer 3
Codec ID : 2
Codec ID/Hint : MP3
Duration : 37mn 50s
Bit rate mode : Constant
Bit rate : 128 Kbps
Channel(s) : 2 channels
Sampling rate : 44.1 KHz
Compression mode : Lossy
Stream size : 34.6 MiB (6%)
Code:
FILESERVE
http://www.fileserve.com/file/Fecxkmm/HBO.Boxing.Khan.vs.Judah.HDTV.x264-EViLCREW.Fight-BB.Flv

FILESONIC
http://www.filesonic.com/file/1511833204/HBO.Boxing.Khan.vs.Judah.HDTV.x264-EViLCREW.Fight-BB.Flv

WUPLOAD
http://www.wupload.com/file/65521591/HBO.Boxing.Khan.vs.Judah.HDTV.x264-EViLCREW.Fight-BB.Flv

BITSHARE
http://bitshare.com/files/zlisbwpe/HBO.Boxing.Khan.vs.Judah.HDTV.x264-EViLCREW.Fight-BB.Flv.html
Dj.IcE is offline   Reply With Quote
Reply



Currently Active Users Viewing This Thread: 1 (0 members and 1 guests)
 
Thread Tools
Display Modes

Posting Rules
You may not post new threads
You may not post replies
You may not post attachments
You may not edit your posts

vB code is On
Smilies are On
[IMG] code is On
HTML code is Off
Trackbacks are Off
Pingbacks are Off
Refbacks are On

VerticalSports
Baseball Forum Golf Forum Boxing Forum Snowmobile Forum
Basketball Forum Soccer Forum MMA Forum PWC Forum
Football Forum Cricket Forum Wrestling Forum ATV Forum
Hockey Forum Volleyball Forum Paintball Forum Snowboarding Forum
Tennis Forum Rugby Forums Lacrosse Forum Skiing Forums
Copyright (C) Verticalscope Inc SEO by vBSEO 3.3.2
Powered by vBulletin Copyright 2000-2009 Jelsoft Enterprises Limited.
vBCredits v1.4 Copyright ©2007, PixelFX Studios