Impact.FC.2.The.Uprising - MMA Forum - UFC Forums - UFC Results - MMA Videos
Reply
 
LinkBack Thread Tools Display Modes
post #1 of 13 (permalink) Old 07-18-2010, 02:10 AM Thread Starter
Banned
 
Join Date: Oct 2009
Posts: 973
                     
Impact.FC.2.The.Uprising

Impact.FC.2.The.Uprising



Impact•FC•2•The•Uprising•Josh Barnett vs Geronimo dos Santos•720p•x264•BluntzRip
Code:
http://rapidshare.com/files/407559960/Josh.Barnett.vs.Geronimo.dos.Santos.mp4
Code:
http://hotfile.com/dl/55757810/4c9eca3/Josh.Barnett.vs.Geronimo.dos.Santos.mp4.html

Impact•FC•2•The•Uprising•Murilo Rua vs Jeremy May•720p•x264•BluntzRip
Code:
http://rapidshare.com/files/407559981/Murilo.Rua.vs.Jeremy.May.mp4
Code:
http://hotfile.com/dl/55757811/21a27a1/Murilo.Rua.vs.Jeremy.May.mp4.html

Impact•FC•2•The•Uprising•Paulo Filho vs Denis Kang•XviD•BluntzRip
Code:
http://rapidshare.com/files/407559987/Paulo.Filho.vs.Denis.Kang.avi
Code:
http://hotfile.com/dl/55757847/23a1c44/Paulo.Filho.vs.Denis.Kang.avi.ht

Impact•FC•2•The•Uprising•Ken Shamrock vs Pedro Rizzo•720p•x264•BluntzRip
Code:
http://rapidshare.com/files/407559984/Ken.Shamrock.vs.Pedro.Rizzo.mp4
Code:
http://hotfile.com/dl/55757848/79170b1/Ken.Shamrock.vs.Pedro.Rizzo.mp4.html
Dj.IcE is offline  
Sponsored Links
Advertisement
 
post #2 of 13 (permalink) Old 07-18-2010, 05:38 AM
Flyweight
 
Tehboyd's Avatar
 
Join Date: Mar 2010
Posts: 203
                     
Impact FC.2-Josh Barnett vs.Geronimo Dos Santos-HD 720p



Code:
General

Format                           : 3gr6
Codec ID                         : 3gr6
File size                        : 134 MiB
Duration                         : 3mn 3s
Overall bit rate                 : 6 123 Kbps


Video
ID                               : 1
Format                           : AVC
Format/Info                      : Advanced Video Codec
Format profile                   : Main@L4.0
Format settings, CABAC           : No
Format settings, ReFrames        : 1 frame
Codec ID                         : avc1
Codec ID/Info                    : Advanced Video Coding
Duration                         : 3mn 3s
Bit rate mode                    : Variable
Bit rate                         : 5 989 Kbps
Width                            : 1 280 pixels
Height                           : 720 pixels
Display aspect ratio             : 16:9
Frame rate mode                  : Variable
Frame rate                       : 29.970 fps
Minimum frame rate               : 29.944 fps
Maximum frame rate               : 29.973 fps
Color space                      : YUV
Chroma subsampling               : 4:2:0
Bit depth                        : 8 bits
Scan type                        : Progressive
Bits/(Pixel*Frame)               : 0.217
Stream size                      : 131 MiB (98%)


Audio
ID                               : 2
Format                           : AAC
Format/Info                      : Advanced Audio Codec
Format version                   : Version 4
Format profile                   : LC
Format settings, SBR             : No
Codec ID                         : 40
Duration                         : 3mn 3s
Bit rate mode                    : Constant
Bit rate                         : 125 Kbps
Channel(s)                       : 2 channels
Channel positions                : Front: L R
Sampling rate                    : 44.1 KHz
Stream size                      : 2.73 MiB (2%)




Code:
http://hotfile.com/dl/55795042/5613ca1/JB_GDS.mp4.html
Tehboyd is offline  
post #3 of 13 (permalink) Old 07-18-2010, 05:58 AM Thread Starter
Banned
 
Join Date: Oct 2009
Posts: 973
                     
will do full when it's out
Dj.IcE is offline  
post #4 of 13 (permalink) Old 07-18-2010, 06:17 AM
Flyweight
 
Tehboyd's Avatar
 
Join Date: Mar 2010
Posts: 203
                     
Impact FC.2- Murilo Rua vs. Jeremy May-HD 720p



Code:
General

Format                           : 3gr6
Codec ID                         : 3gr6
File size                        : 203 MiB
Duration                         : 4mn 37s
Overall bit rate                 : 6 134 Kbps


Video
ID                               : 1
Format                           : AVC
Format/Info                      : Advanced Video Codec
Format profile                   : Main@L4.0
Format settings, CABAC           : No
Format settings, ReFrames        : 1 frame
Codec ID                         : avc1
Codec ID/Info                    : Advanced Video Coding
Duration                         : 4mn 37s
Bit rate mode                    : Variable
Bit rate                         : 6 000 Kbps
Width                            : 1 280 pixels
Height                           : 720 pixels
Display aspect ratio             : 16:9
Frame rate mode                  : Variable
Frame rate                       : 29.970 fps
Minimum frame rate               : 29.944 fps
Maximum frame rate               : 30.003 fps
Color space                      : YUV
Chroma subsampling               : 4:2:0
Bit depth                        : 8 bits
Scan type                        : Progressive
Bits/(Pixel*Frame)               : 0.217
Stream size                      : 198 MiB (98%)


Audio
ID                               : 2
Format                           : AAC
Format/Info                      : Advanced Audio Codec
Format version                   : Version 4
Format profile                   : LC
Format settings, SBR             : No
Codec ID                         : 40
Duration                         : 4mn 37s
Bit rate mode                    : Constant
Bit rate                         : 125 Kbps
Channel(s)                       : 2 channels
Channel positions                : Front: L R
Sampling rate                    : 44.1 KHz
Stream size                      : 4.14 MiB (2%)



Code:
http://hotfile.com/dl/55799737/575c8d0/MR_JM.mp4.html
Tehboyd is offline  
post #5 of 13 (permalink) Old 07-18-2010, 06:28 AM
Flyweight
 
Tehboyd's Avatar
 
Join Date: Mar 2010
Posts: 203
                     
Impact FC.2- Ken Shamrock vs.Pedro Rizzo-HD 720p



Code:
General

Format                           : 3gr6
Codec ID                         : 3gr6
File size                        : 182 MiB
Duration                         : 4mn 9s
Overall bit rate                 : 6 129 Kbps


Video
ID                               : 1
Format                           : AVC
Format/Info                      : Advanced Video Codec
Format profile                   : Main@L4.0
Format settings, CABAC           : No
Format settings, ReFrames        : 1 frame
Codec ID                         : avc1
Codec ID/Info                    : Advanced Video Coding
Duration                         : 4mn 9s
Bit rate mode                    : Variable
Bit rate                         : 5 995 Kbps
Width                            : 1 280 pixels
Height                           : 720 pixels
Display aspect ratio             : 16:9
Frame rate mode                  : Variable
Frame rate                       : 29.970 fps
Minimum frame rate               : 29.944 fps
Maximum frame rate               : 29.973 fps
Color space                      : YUV
Chroma subsampling               : 4:2:0
Bit depth                        : 8 bits
Scan type                        : Progressive
Bits/(Pixel*Frame)               : 0.217
Stream size                      : 178 MiB (98%)


Audio
ID                               : 2
Format                           : AAC
Format/Info                      : Advanced Audio Codec
Format version                   : Version 4
Format profile                   : LC
Format settings, SBR             : No
Codec ID                         : 40
Duration                         : 4mn 8s
Bit rate mode                    : Constant
Bit rate                         : 125 Kbps
Channel(s)                       : 2 channels
Channel positions                : Front: L R
Sampling rate                    : 44.1 KHz
Stream size                      : 3.72 MiB (2%)




Code:
http://hotfile.com/dl/55805517/b392508/KS_PR.mp4.html
Tehboyd is offline  
post #6 of 13 (permalink) Old 07-18-2010, 06:40 AM
Flyweight
 
Tehboyd's Avatar
 
Join Date: Mar 2010
Posts: 203
                     
Impact FC.2- Paulo Filho vs.Denis Kang- XviD




Code:
General

Format                           : AVI
Format/Info                      : Audio Video Interleave
Format profile                   : OpenDML
File size                        : 217 MiB
Duration                         : 20mn 8s
Overall bit rate                 : 1 507 Kbps


Video
ID                               : 0
Format                           : MPEG-4 Visual
Format profile                   : Advanced Simple@L5
Format settings, BVOP            : Yes
Format settings, QPel            : No
Format settings, GMC             : No warppoints
Format settings, Matrix          : Default (H.263)
Muxing mode                      : Packed bitstream
Codec ID                         : XVID
Codec ID/Hint                    : XviD
Duration                         : 20mn 8s
Bit rate                         : 1 395 Kbps
Width                            : 640 pixels
Height                           : 352 pixels
Display aspect ratio             : 16:9
Frame rate                       : 29.970 fps
Color space                      : YUV
Chroma subsampling               : 4:2:0
Bit depth                        : 8 bits
Scan type                        : Progressive
Bits/(Pixel*Frame)               : 0.207
Stream size                      : 201 MiB (93%)


Audio
ID                               : 1
Format                           : MPEG Audio
Format version                   : Version 1
Format profile                   : Layer 3
Mode                             : Joint stereo
Mode extension                   : MS Stereo
Codec ID                         : 55
Codec ID/Hint                    : MP3
Duration                         : 20mn 8s
Bit rate mode                    : Variable
Bit rate                         : 102 Kbps
Nominal bit rate                 : 128 Kbps
Channel(s)                       : 2 channels
Sampling rate                    : 48.0 KHz
Stream size                      : 14.7 MiB (7%)
Alignment                        : Aligned on interleaves
Interleave, duration             : 24 ms (0.72 video frame)
Interleave, preload duration     : 226 ms




Code:
http://hotfile.com/dl/55806514/c4121aa/PF_DK.avi.html
Tehboyd is offline  
post #7 of 13 (permalink) Old 07-18-2010, 06:52 AM
MMA Fanatic
 
CheekyMonkey's Avatar
 
Join Date: Nov 2009
Posts: 15
 
Did Paul Daley fight? Do you think his fight will get put up?
CheekyMonkey is offline  
post #8 of 13 (permalink) Old 07-18-2010, 07:39 AM
LONGHAIRED COUNTRYBOY
 
oldfan's Avatar
 
Join Date: Mar 2010
Location: NC.
Posts: 9,541
Blog Entries: 1
                     
Quote:
Originally Posted by CheekyMonkey View Post
Did Paul Daley fight? Do you think his fight will get put up?
here ya go


oldfan is offline  
post #9 of 13 (permalink) Old 07-18-2010, 07:45 AM
MMA Fanatic
 
CheekyMonkey's Avatar
 
Join Date: Nov 2009
Posts: 15
 
Cheers bud!
CheekyMonkey is offline  
post #10 of 13 (permalink) Old 07-18-2010, 08:09 AM Thread Starter
Banned
 
Join Date: Oct 2009
Posts: 973
                     
lmpact FC MMA Uprising PPV 2010 july 17







INCLUDE EXTRAS - AFTERFIGHT


400MB LINKS

HOTFILE
Code:
http://hotfile.com/dl/55825349/d25a43d/lmpact__FC_MMA.part1.rar.html
http://hotfile.com/dl/55825344/8649d96/lmpact__FC_MMA.part2.rar.html
http://hotfile.com/dl/55825862/160dc84/lmpact__FC_MMA.part3.rar.html
http://hotfile.com/dl/55825225/98ee2f2/lmpact__FC_MMA.part4.rar.html
NETLOAD
Code:
http://netload.in/datei5QKdtQrfCR/lmpact__FC_MMA.part1.rar.htm
http://netload.in/dateiVz0FsE712a/lmpact__FC_MMA.part2.rar.htm
http://netload.in/dateiXbBFG9Uf99/lmpact__FC_MMA.part3.rar.htm
http://netload.in/dateicirSVloTy3/lmpact__FC_MMA.part4.rar.htm
TURBO
Code:
http://turbobit.net/beutgzxc3emr.html
http://turbobit.net/5n43o19zilct.html
http://turbobit.net/bwehoaup7c41.html
http://turbobit.net/u5mq4z2j3ncd.html
MEGAUPLOAD
Code:
http://www.megaupload.com/?d=0LZ15E5I
http://www.megaupload.com/?d=P62DBOIR
http://www.megaupload.com/?d=1XWOBKUE
http://www.megaupload.com/?d=KIN0QLUO
1 LINK DOWNLOADS

HOTFILE
Code:
http://hotfile.com/dl/55830671/a1ff467/lmpact__FC_MMA.avi.html
RS PREMIUM
Code:
http://rapidshare.com/files/407597748/lmpact__FC_MMA.avi
TURBO
Code:
http://turbobit.net/ohco6rkw31b9.html
EXTRAS

HOTFILE
Code:
http://hotfile.com/dl/55824463/1273d43/after_fight.avi.html
Dj.IcE is offline  
Reply

Quick Reply
Message:
Options

Register Now



In order to be able to post messages on the MMA Forum - UFC Forums - UFC Results - MMA Videos forums, you must first register.
Please enter your desired user name, your email address and other required details in the form below.

User Name:
Password
Please enter a password for your user account. Note that passwords are case-sensitive.

Password:


Confirm Password:
Email Address
Please enter a valid email address for yourself.

Email Address:
OR

Log-in









Human Verification

In order to verify that you are a human and not a spam bot, please enter the answer into the following box below based on the instructions contained in the graphic.



Currently Active Users Viewing This Thread: 1 (0 members and 1 guests)
 
Thread Tools
Show Printable Version Show Printable Version
Email this Page Email this Page
Display Modes
Linear Mode Linear Mode



Posting Rules  
You may post new threads
You may post replies
You may not post attachments
You may not edit your posts

BB code is On
Smilies are On
[IMG] code is On
HTML code is Off
Trackbacks are Off
Pingbacks are Off
Refbacks are On

 
For the best viewing experience please update your browser to Google Chrome