Mixed Martial Arts Forum banner
1 - 5 of 5 Posts

·
Banned
Joined
·
973 Posts
Discussion Starter · #1 ·
Anderson.Silva.Striking.Combos.For.MMA.DVDRip.XviD-DOJO



Code:
The                                                    
                                                   
###########       #########    ######    #########    
####  ######   #####  #####    ####   #####  #####  
####    ####   ####    #####   ####   ####    #####  
####    ##### #####     ####   ####  #####     ####  
####    ##### ####      ####   ####  ####      ####  
####    ##### #####     ####   ####  #####     ####  
####    ##### #####     ####   ####  #####     ####  
####    ####   ####    #####   ####   ####    #####  
####  #####    #####  #####    ####   #####  #####  
###########      ##########     ####    ##########    
                              ####                  
                            #####                  
                            ###                    

Presents another great original release...


Anderson.Silva.Striking.Combos.For.MMA.DVDRip.XviD-DOJO


Striking Combos for MMA DVD with Anderson Silva


In Striking Combos for MMA, UFC Middleweight Champion Anderson Silva unveils for the first time ever,
all the striking combinations that have made him the best pound-for-pound MMA fighter on the planet.
Through descriptive analysis and slow motion sequences, he teaches you not only how to attack your opponent
with aggressive punching combinations but also how to halt your opponent in the middle of his attacks
with highly technical counterpunching combinations. He shows you how to overwhelm your opponent
by combining punches, kicks, knees, and elbow strikes into fluid, sealmess assaults.
Furthermore, he demonstrates a host of deadly Muay Thai counterattacking combinations to make your
opponent pay every time he comes forward with an attack of his own. Leaving no stone unturned,
he even includes combination drills to increase the speed, power, and timing of your striking.

Whether you are a beginner martial artist of a professional MMA figher, Striking Combos for MMA is for you.

-60 techniques, nearly 2 hours of cutting-edge instruction shot in 1080p hi-definition
-Revolutionary technique presentation featuring both orthodox and southpaw optical flow replays
-Exclusive bonus featurette: "The Spider" - a 40 minute, up-close, and personal interview with a living legend

http://www.budovideos.com/shop/customer/product.php?productid=29873&cat=292&page=1


Details:

Release date: 1/6 2010



Format                           : MPEG-4 Visual
Format settings, Matrix          : Default (H.263)
Codec ID                         : XVID
Codec ID/Hint                    : XviD
Bit rate                         : 1 342 Kbps
Width                            : 624 pixels
Height                           : 352 pixels
Display aspect ratio             : 16:9
Frame rate                       : 29.970 fps
Resolution                       : 8 bits
Colorimetry                      : 4:2:0
Scan type                        : Progressive
Bits/(Pixel*Frame)               : 0.204
Writing library                  : XviD 1.2.1 (UTC 2008-12-04)

Audio
Format                           : MPEG Audio
Format version                   : Version 1
Format profile                   : Layer 3
Mode                             : Joint stereo
Format_Settings_ModeExtension    : MS Stereo
Codec ID                         : 55
Codec ID/Hint                    : MP3
Bit rate mode                    : Variable
Bit rate                         : 109 Kbps
Nominal bit rate                 : 128 Kbps
Channel(s)                       : 2 channels
Sampling rate                    : 48.0 KHz


Working together since 2010 - Enjoy this great release!

All props to

MMAtor  thor69  Capo  Investigatemma  Minowaman
RAPIDSHARE
Code:
http://rapidshare.com/files/395558204/Anderson.Silva.Striking.Combos.For.MMA.DVDRip.XviD-DOJO.part1.rar
http://rapidshare.com/files/395558208/Anderson.Silva.Striking.Combos.For.MMA.DVDRip.XviD-DOJO.part2.rar
http://rapidshare.com/files/395558216/Anderson.Silva.Striking.Combos.For.MMA.DVDRip.XviD-DOJO.part3.rar
http://rapidshare.com/files/395558174/Anderson.Silva.Striking.Combos.For.MMA.DVDRip.XviD-DOJO.part4.rar
http://rapidshare.com/files/395558168/Anderson.Silva.Striking.Combos.For.MMA.DVDRip.XviD-DOJO.part5.rar
http://rapidshare.com/files/395558175/Anderson.Silva.Striking.Combos.For.MMA.DVDRip.XviD-DOJO.part6.rar
http://rapidshare.com/files/395558486/Anderson.Silva.Striking.Combos.For.MMA.DVDRip.XviD-DOJO.part7.rar
1 LINK DOWNLOADS

HOTFILE
Code:
http://hotfile.com/dl/46607991/dd16a13/anderson.silva.striking.combos.for.mma.dvdrip.xvid.cd1-dojo.avi.html
http://hotfile.com/dl/46607992/be15e0a/anderson.silva.striking.combos.for.mma.dvdrip.xvid.cd2-dojo.avi.html
TURBO
Code:
http://turbobit.net/vta50ek05ar0.html
http://turbobit.net/dj15go4cx7be.html
 

·
Registered
Joined
·
203 Posts
Anderson Silva -Striking.combos.for.mma DvDRip Xvid-doj

Great MMA movie .





Code:
General

Format                           : AVI
Format/Info                      : Audio Video Interleave
File size                        : 699 MiB
Duration                         : 1h 7mn
Overall bit rate                 : 1 458 Kbps
Writing application              : VirtualDubMod 1.5.10.2 (build 2540/release)
Writing library                  : VirtualDubMod build 2540/release

Video
ID                               : 0
Format                           : MPEG-4 Visual
Format profile                   : Advanced [email protected]
Format settings, BVOP            : Yes
Format settings, QPel            : No
Format settings, GMC             : No warppoints
Format settings, Matrix          : Default (H.263)
Codec ID                         : XVID
Codec ID/Hint                    : XviD
Duration                         : 1h 7mn
Bit rate                         : 1 342 Kbps
Width                            : 624 pixels
Height                           : 352 pixels
Display aspect ratio             : 16:9
Frame rate                       : 29.970 fps
Resolution                       : 8 bits
Colorimetry                      : 4:2:0
Scan type                        : Progressive
Bits/(Pixel*Frame)               : 0.204
Stream size                      : 643 MiB (92%)
Writing library                  : XviD 1.2.1 (UTC 2008-12-04)

Audio
ID                               : 1
Format                           : MPEG Audio
Format version                   : Version 1
Format profile                   : Layer 3
Format_Settings_Mode             : Joint stereo
Format_Settings_ModeExtension    : MS Stereo
Codec ID                         : 55
Codec ID/Hint                    : MP3
Duration                         : 1h 7mn
Bit rate mode                    : Variable
Bit rate                         : 109 Kbps
Nominal bit rate                 : 128 Kbps
Channel(s)                       : 2 channels
Sampling rate                    : 48.0 KHz
Stream size                      : 49.0 MiB (7%)
Alignment                        : Aligned on interleaves
Interleave, duration             : 24 ms (0.72 video frame)
Interleave, preload duration     : 653 ms


SCREEN





HOTFILE


Code:
http://hotfile.com/dl/46981085/32d9e2d/AS_STR1.avi.html
http://hotfile.com/dl/46981363/d4bdc1e/AS_STR2.avi.html


Enjoy
 

·
Registered
Joined
·
7 Posts
Could you reupload 100MB parts to MU or RS?
I wish you had not deleted your files, you could have gone into the RS premium settings, and selected the option to "automatically delete the files after 60days of no download"
That way, you could have kept all your stuff, and it wouldnt have cost you any rapids.
THE RAPIDS ARE ONLY FOR SECURED STORAGE OF YOUR UPLOADS, AND RS AUTOMATICALLY ASSUMES THAT YOU WANT ALL OF YOUR FILES IN SECURED STORAGE.
A SIMPLE ACTION OF GOING INTO OPTIONS AND TICKING THE RIGHT BOX SAVES YOU FROM SPENDING ANY RAPIDS ON YOUR UPLOADS.
 

·
Registered
Joined
·
444 Posts
Dude.. this is one of the best videos i have ever come across !

No "BS'ing", straight to the point.

Thank you very much.

Hopefully, the other DVDs will be found :)
 
1 - 5 of 5 Posts
This is an older thread, you may not receive a response, and could be reviving an old thread. Please consider creating a new thread.
Top