Mixed Martial Arts Forum banner
1 - 12 of 12 Posts

·
Banned
Joined
·
973 Posts
Strikeforce.Fedor.vs.Werdum.06.26.2010.HDTV / FIGHT / 720P

Strikeforce.Fedor.vs.Werdum.Fight



Strikeforce•Fedor.Emelianenko.vs.Fabricio.Werdum•x264•BluntzRip

Code:
http://rapidshare.com/files/403144743/Fedor.Emelianenko.vs.Fabricio.Werdum.ts
Code:
http://hotfile.com/dl/50833310/22d0fb5/Fedor.Emelianenko.vs.Fabricio.Werdum.ts.html

Strikeforce•Fedor.Emelianenko.vs.Fabricio.Werdum•XviD•BluntzRip

Code:
http://rapidshare.com/files/403145767/Fedor.Emelianenko.vs.Fabricio.Werdum.avi
Code:
http://hotfile.com/dl/50834235/347f6f1/Fedor.Emelianenko.vs.Fabricio.Werdum.avi.html
 

·
Registered
Joined
·
45 Posts
StrikeForce: Fedor Emelianenko VS Fabricio Werdum (Single Fights)

StrikeForce: Fedor Emelianenko VS Fabricio Werdum (Single Fights)




Single fights from the highly anticipated StrikeForce event from San Jose.

Event Date: Jun 26 2010

Fedor Vs Werdum

Code:
http://rapidshare.com/files/403148369/FE.vs.FW.rar
 

·
Registered
Joined
·
203 Posts
Discussion Starter · #4 · (Edited)
Strikeforce-Fedor Emelianenko vs. Werdum - HD 1920x1080



Code:
General

Format                           : MPEG-TS
File size                        : 178 MiB
Duration                         : 2mn 34s
Overall bit rate                 : 9 698 Kbps

Video
ID                               : 4113 (0x1011)
Menu ID                          : 1 (0x1)
Format                           : AVC
Format/Info                      : Advanced Video Codec
Format profile                   : [email protected]
Format settings, CABAC           : Yes
Format settings, ReFrames        : 4 frames
Duration                         : 2mn 34s
Bit rate                         : 8 641 Kbps
Width                            : 1 920 pixels
Height                           : 1 080 pixels
Display aspect ratio             : 16:9
Frame rate                       : 29.970 fps
Resolution                       : 8 bits
Colorimetry                      : 4:2:0
Scan type                        : Interlaced
Scan order                       : Top Field First
Bits/(Pixel*Frame)               : 0.139
Stream size                      : 159 MiB (89%)
Color primaries                  : BT.709-5, BT.1361, IEC 61966-2-4, SMPTE RP177
Transfer characteristics         : BT.709-5, BT.1361
Matrix coefficients              : BT.709-5, BT.1361, IEC 61966-2-4 709, SMPTE RP177

Audio
ID                               : 4352 (0x1100)
Menu ID                          : 1 (0x1)
Format                           : AC-3
Format/Info                      : Audio Coding 3
Duration                         : 2mn 34s
Bit rate mode                    : Constant
Bit rate                         : 384 Kbps
Channel(s)                       : 2 channels
Channel positions                : L R
Sampling rate                    : 48.0 KHz
Video delay                      : 1ms
Stream size                      : 7.06 MiB (4%)


Code:
http://hotfile.com/dl/50838052/71b97d2/FE_FW.ts.html
 

·
Banned
Joined
·
973 Posts
Strikeforce.Fedor.vs.Werdum.06.26.2010.HDTV.XviD-XS



Code:
Strikeforce.Fedor.vs.Werdum.06.26.2010.HDTV.XviD-XS

General Information
Title: Strikeforce.Fedor.vs.Werdum.06.26.2010.HDTV.XviD-XS
Release Date: June 26th, 2010
Source: 1080p
Channel: Showtime HD Directv Channel 545
File Format: XviD (.avi)
File Size: 1.16GB
Resolution: 640x360
File Bitrate: 1245Kbps
Audio: 128Kbps MP3
Time Length : 1 Hour 59 Minutes 49 Seconds

Fight Card
Fedor Emelianenko Vs Fabricio Werdum
Cristiane ‘Cyborg’ Santos Vs Jan Finney
Cung Le Vs Scott Smith
Josh Thompson Vs Pat Healy
RAPIDSHARE
Code:
http://rapidshare.com/files/403171620/Strikeforce.Fedor.vs.Werdum.06.26.2010.HDTV.XviD-XS.part1.rar
http://rapidshare.com/files/403171662/Strikeforce.Fedor.vs.Werdum.06.26.2010.HDTV.XviD-XS.part2.rar
http://rapidshare.com/files/403171761/Strikeforce.Fedor.vs.Werdum.06.26.2010.HDTV.XviD-XS.part3.rar
http://rapidshare.com/files/403171818/Strikeforce.Fedor.vs.Werdum.06.26.2010.HDTV.XviD-XS.part4.rar
http://rapidshare.com/files/403171867/Strikeforce.Fedor.vs.Werdum.06.26.2010.HDTV.XviD-XS.part5.rar
http://rapidshare.com/files/403171886/Strikeforce.Fedor.vs.Werdum.06.26.2010.HDTV.XviD-XS.part6.rar
MEGAUPLOAD
Code:
http://www.megaupload.com/?d=U44B91BD
http://www.megaupload.com/?d=ES1LN9DZ
http://www.megaupload.com/?d=U9AGYYFI
http://www.megaupload.com/?d=KPDTOZ7Y
http://www.megaupload.com/?d=PEAQTO0V
http://www.megaupload.com/?d=XPGPTOJZ
HOTFILE
Code:
http://hotfile.com/dl/50856348/aee2efb/Strikeforce.Fedor.vs.Werdum.06.26.2010.HDTV.XviD-XS.part1.rar.html
http://hotfile.com/dl/50856331/292e67b/Strikeforce.Fedor.vs.Werdum.06.26.2010.HDTV.XviD-XS.part2.rar.html
http://hotfile.com/dl/50856340/3da886a/Strikeforce.Fedor.vs.Werdum.06.26.2010.HDTV.XviD-XS.part3.rar.html
http://hotfile.com/dl/50856250/9b17892/Strikeforce.Fedor.vs.Werdum.06.26.2010.HDTV.XviD-XS.part4.rar.html
http://hotfile.com/dl/50856280/4aa969f/Strikeforce.Fedor.vs.Werdum.06.26.2010.HDTV.XviD-XS.part5.rar.html
http://hotfile.com/dl/50856195/3425207/Strikeforce.Fedor.vs.Werdum.06.26.2010.HDTV.XviD-XS.part6.rar.html
NETLOAD
Code:
http://netload.in/datei2jbeMOBsVN/Strikeforce.Fedor.vs.Werdum.06.26.2010.HDTV.XviD-XS.part1.rar.htm
http://netload.in/dateipuLiytVxKc/Strikeforce.Fedor.vs.Werdum.06.26.2010.HDTV.XviD-XS.part2.rar.htm
http://netload.in/datei8a2vquOVwd/Strikeforce.Fedor.vs.Werdum.06.26.2010.HDTV.XviD-XS.part3.rar.htm
http://netload.in/dateiUjoJDJDGhH/Strikeforce.Fedor.vs.Werdum.06.26.2010.HDTV.XviD-XS.part4.rar.htm
http://netload.in/dateijG9qcogETw/Strikeforce.Fedor.vs.Werdum.06.26.2010.HDTV.XviD-XS.part5.rar.htm
http://netload.in/datei4FnL1kQJ8S/Strikeforce.Fedor.vs.Werdum.06.26.2010.HDTV.XviD-XS.part6.rar.htm
TURBO
Code:
http://turbobit.net/b1hrojeg6s1a.html
http://turbobit.net/8lc7hg6w3onv.html
http://turbobit.net/hs4yj4n005zm.html
http://turbobit.net/vpmqb7dnzp1r.html
http://turbobit.net/z83tt574tvz3.html
http://turbobit.net/90p5lg6upmke.html
800MB LINKS

HOTFILE
Code:
http://hotfile.com/dl/50858330/62d69ca/Strikeforce.Fedor.vs.Werdum.06.26.2010.HDTV.XviD-XS.800mb.part1.rar.html
http://hotfile.com/dl/50857645/ff4f8b4/Strikeforce.Fedor.vs.Werdum.06.26.2010.HDTV.XviD-XS.800mb.part2.rar.html
MEGAUPLOAD
Code:
http://www.megaupload.com/?d=HTTLW3OX
http://www.megaupload.com/?d=3B5WGYEX
RS PREMIUM
Code:
http://rapidshare.com/files/403172187/Strikeforce.Fedor.vs.Werdum.06.26.2010.HDTV.XviD-XS.800mb.part1.rar
http://rapidshare.com/files/403172189/Strikeforce.Fedor.vs.Werdum.06.26.2010.HDTV.XviD-XS.800mb.part2.rar
TURBO
Code:
http://turbobit.net/i69rnqp850b8.html
http://turbobit.net/ls59vwg6nuys.html
 

·
Registered
Joined
·
203 Posts
Discussion Starter · #7 ·
Strikeforce- Cris Cyborg vs. Jan Finney - Fight XviD



Code:
General

Format                           : AVI
Format/Info                      : Audio Video Interleave
File size                        : 129 MiB
Duration                         : 13mn 1s
Overall bit rate                 : 1 385 Kbps
Writing application              : DigiArty AV Encoder Core
Writing library                  : VirtualDub build 32593/release

Video
ID                               : 0
Format                           : MPEG-4 Visual
Format profile                   : Advanced [email protected]
Format settings, BVOP            : Yes
Format settings, QPel            : No
Format settings, GMC             : No warppoints
Format settings, Matrix          : Default (MPEG)
Codec ID                         : XVID
Codec ID/Hint                    : XviD
Duration                         : 13mn 1s
Bit rate                         : 1 245 Kbps
Width                            : 640 pixels
Height                           : 360 pixels
Display aspect ratio             : 16:9
Frame rate                       : 29.970 fps
Resolution                       : 8 bits
Colorimetry                      : 4:2:0
Scan type                        : Progressive
Bits/(Pixel*Frame)               : 0.180
Stream size                      : 116 MiB (90%)
Writing library                  : XviD 1.2.1 (UTC 2008-12-04)

Audio
ID                               : 1
Format                           : MPEG Audio
Format version                   : Version 1
Format profile                   : Layer 3
Format_Settings_Mode             : Joint stereo
Format_Settings_ModeExtension    : MS Stereo
Codec ID                         : 55
Codec ID/Hint                    : MP3
Duration                         : 13mn 1s
Bit rate mode                    : Constant
Bit rate                         : 128 Kbps
Channel(s)                       : 2 channels
Sampling rate                    : 48.0 KHz
Stream size                      : 11.9 MiB (9%)
Alignment                        : Split accross interleaves
Interleave, duration             : 33 ms (1.00 video frame)
Interleave, preload duration     : 500 ms



Code:
http://hotfile.com/dl/50872291/7336e6a/CC_JF.avi.html
 

·
Registered
Joined
·
203 Posts
Discussion Starter · #8 ·
Strikeforce- Cung Le vs. Scott Smith - Fight XviD



Code:
General

Format                           : AVI
Format/Info                      : Audio Video Interleave
File size                        : 129 MiB
Duration                         : 13mn 1s
Overall bit rate                 : 1 385 Kbps
Writing application              : DigiArty AV Encoder Core
Writing library                  : VirtualDub build 32593/release

Video
ID                               : 0
Format                           : MPEG-4 Visual
Format profile                   : Advanced [email protected]
Format settings, BVOP            : Yes
Format settings, QPel            : No
Format settings, GMC             : No warppoints
Format settings, Matrix          : Default (MPEG)
Codec ID                         : XVID
Codec ID/Hint                    : XviD
Duration                         : 13mn 1s
Bit rate                         : 1 245 Kbps
Width                            : 640 pixels
Height                           : 360 pixels
Display aspect ratio             : 16:9
Frame rate                       : 29.970 fps
Resolution                       : 8 bits
Colorimetry                      : 4:2:0
Scan type                        : Progressive
Bits/(Pixel*Frame)               : 0.180
Stream size                      : 116 MiB (90%)
Writing library                  : XviD 1.2.1 (UTC 2008-12-04)

Audio
ID                               : 1
Format                           : MPEG Audio
Format version                   : Version 1
Format profile                   : Layer 3
Format_Settings_Mode             : Joint stereo
Format_Settings_ModeExtension    : MS Stereo
Codec ID                         : 55
Codec ID/Hint                    : MP3
Duration                         : 13mn 1s
Bit rate mode                    : Constant
Bit rate                         : 128 Kbps
Channel(s)                       : 2 channels
Sampling rate                    : 48.0 KHz
Stream size                      : 11.9 MiB (9%)
Alignment                        : Split accross interleaves
Interleave, duration             : 33 ms (1.00 video frame)
Interleave, preload duration     : 500 ms



Code:
http://hotfile.com/dl/50872105/372a1f5/CL_SS.avi.html
 

·
Registered
Joined
·
203 Posts
Discussion Starter · #9 ·
Strikeforce- Josh Thompson vs. Pat Healy - Fight XviD



Code:
General

Format                           : AVI
Format/Info                      : Audio Video Interleave
File size                        : 129 MiB
Duration                         : 13mn 1s
Overall bit rate                 : 1 385 Kbps
Writing application              : DigiArty AV Encoder Core
Writing library                  : VirtualDub build 32593/release

Video
ID                               : 0
Format                           : MPEG-4 Visual
Format profile                   : Advanced [email protected]
Format settings, BVOP            : Yes
Format settings, QPel            : No
Format settings, GMC             : No warppoints
Format settings, Matrix          : Default (MPEG)
Codec ID                         : XVID
Codec ID/Hint                    : XviD
Duration                         : 13mn 1s
Bit rate                         : 1 245 Kbps
Width                            : 640 pixels
Height                           : 360 pixels
Display aspect ratio             : 16:9
Frame rate                       : 29.970 fps
Resolution                       : 8 bits
Colorimetry                      : 4:2:0
Scan type                        : Progressive
Bits/(Pixel*Frame)               : 0.180
Stream size                      : 116 MiB (90%)
Writing library                  : XviD 1.2.1 (UTC 2008-12-04)

Audio
ID                               : 1
Format                           : MPEG Audio
Format version                   : Version 1
Format profile                   : Layer 3
Format_Settings_Mode             : Joint stereo
Format_Settings_ModeExtension    : MS Stereo
Codec ID                         : 55
Codec ID/Hint                    : MP3
Duration                         : 13mn 1s
Bit rate mode                    : Constant
Bit rate                         : 128 Kbps
Channel(s)                       : 2 channels
Sampling rate                    : 48.0 KHz
Stream size                      : 11.9 MiB (9%)
Alignment                        : Split accross interleaves
Interleave, duration             : 33 ms (1.00 video frame)
Interleave, preload duration     : 500 ms



Code:
http://hotfile.com/dl/50873702/12b2c04/JT_PH.avi.html
 

·
Banned
Joined
·
973 Posts
Strikeforce.M-1.Global.Fedor.vs.Werdum.720p.HDTV.x264-WB



Code:
    Filename:......: Strikeforce.M-1.Global.Fedor.vs.Werdum.720p.HDTV.x264-WB
    Release.Date...: 06.27.2010
    Air.Date.......: 06.26.2010
    Genre..........: MMA
    Size...........: 4.37 GB
    Source.........: Sho HD
    Container......: mkv
    Frame.Rate.....: 29.97 FPS
    Resolution.....: 1280 x 688
    Aspect.Ratio...: 1.85:1
    Video.Codec....: x264
    Video.bitrate..: 4862 kbps
    Audio.Codec....: AC3
    Audio.bitrate..: 384 kbps
    Runtime........: 119 mins
800MB LINKS

RS PREMIUM
Code:
http://rapidshare.com/files/403245393/Strikeforce.M-1.Global.Fedor.vs.Werdum.720p.HDTV.x264-WB.part1.rar
http://rapidshare.com/files/403242490/Strikeforce.M-1.Global.Fedor.vs.Werdum.720p.HDTV.x264-WB.part2.rar
http://rapidshare.com/files/403242492/Strikeforce.M-1.Global.Fedor.vs.Werdum.720p.HDTV.x264-WB.part3.rar
http://rapidshare.com/files/403244103/Strikeforce.M-1.Global.Fedor.vs.Werdum.720p.HDTV.x264-WB.part4.rar
http://rapidshare.com/files/403244168/Strikeforce.M-1.Global.Fedor.vs.Werdum.720p.HDTV.x264-WB.part5.rar
http://rapidshare.com/files/403245378/Strikeforce.M-1.Global.Fedor.vs.Werdum.720p.HDTV.x264-WB.part6.rar
HOTFILE
Code:
http://hotfile.com/dl/50902739/d902740/Strikeforce.M-1.Global.Fedor.vs.Werdum.720p.HDTV.x264-WB.part1.rar.html
http://hotfile.com/dl/50901733/e139fce/Strikeforce.M-1.Global.Fedor.vs.Werdum.720p.HDTV.x264-WB.part2.rar.html
http://hotfile.com/dl/50901728/233baac/Strikeforce.M-1.Global.Fedor.vs.Werdum.720p.HDTV.x264-WB.part3.rar.html
http://hotfile.com/dl/50901967/f1706fc/Strikeforce.M-1.Global.Fedor.vs.Werdum.720p.HDTV.x264-WB.part4.rar.html
http://hotfile.com/dl/50901966/97e6318/Strikeforce.M-1.Global.Fedor.vs.Werdum.720p.HDTV.x264-WB.part5.rar.html
http://hotfile.com/dl/50902478/c07481a/Strikeforce.M-1.Global.Fedor.vs.Werdum.720p.HDTV.x264-WB.part6.rar.html
HOTFILE
 
1 - 12 of 12 Posts
Top