Mixed Martial Arts Forum banner
1 - 2 of 2 Posts

·
Banned
Joined
·
973 Posts
Discussion Starter · #1 ·
Inside.MMA.2010.07.09.XviD-RKW

This weeks guests: Stephan Bonnar, Nate Marquadt and Eddie Bravo



NETLOAD
Code:
http://netload.in/dateilXfGGBtCwN/Inside.MMA.2010.07.09.XviD-RKW.part1.rar.htm
http://netload.in/dateiZ65MVeSBby/Inside.MMA.2010.07.09.XviD-RKW.part2.rar.htm
TURBO
Code:
http://turbobit.net/exn83krn3tou.html
http://turbobit.net/m63vncluhh4s.html
ONE LINK DOWNLOADS

HOTFILE
Code:
http://hotfile.com/dl/53729111/e61c1ae/Inside.MMA.2010.07.09.XviD-RKW.rar.html
TURBO
Code:
http://turbobit.net/8zgrejk9x0hp.html
 

·
Registered
Joined
·
203 Posts
Inside MMA 2010.07.09. - XviD



Code:
General

Format                           : AVI
Format/Info                      : Audio Video Interleave
File size                        : 455 MiB
Duration                         : 57mn 33s
Overall bit rate                 : 1 106 Kbps

Video
ID                               : 0
Format                           : MPEG-4 Visual
Format profile                   : Advanced [email protected]
Format settings, BVOP            : Yes
Format settings, QPel            : No
Format settings, GMC             : No warppoints
Format settings, Matrix          : Default (H.263)
Muxing mode                      : Packed bitstream
Codec ID                         : XVID
Codec ID/Hint                    : XviD
Duration                         : 57mn 33s
Bit rate                         : 966 Kbps
Width                            : 720 pixels
Height                           : 480 pixels
Display aspect ratio             : 3:2
Frame rate                       : 29.970 fps
Standard                         : NTSC
Color space                      : YUV
Chroma subsampling               : 4:2:0
Bit depth                        : 8 bits
Scan type                        : Progressive
Bits/(Pixel*Frame)               : 0.093
Stream size                      : 398 MiB (87%)


Audio
ID                               : 1
Format                           : MPEG Audio
Format version                   : Version 1
Format profile                   : Layer 3
Codec ID                         : 55
Codec ID/Hint                    : MP3
Duration                         : 57mn 33s
Bit rate mode                    : Constant
Bit rate                         : 128 Kbps
Channel(s)                       : 2 channels
Sampling rate                    : 48.0 KHz
Video delay                      : 24ms
Stream size                      : 52.7 MiB (12%)
Alignment                        : Split accross interleaves
Interleave, duration             : 33 ms (1.00 video frame)
Interleave, preload duration     : 45 ms

Code:
http://hotfile.com/dl/53752236/e458fd4/In_m.avi.html
 
1 - 2 of 2 Posts
Top