Mixed Martial Arts Forum banner
1 - 1 of 1 Posts

·
Registered
Joined
·
203 Posts
Discussion Starter · #1 ·


Code:
General

Format                           : Matroska
File size                        : 90.3 MiB
Duration                         : 3mn 8s
Overall bit rate                 : 4 019 Kbps



Video
ID                               : 1
Format                           : AVC
Format/Info                      : Advanced Video Codec
Format profile                   : [email protected]
Format settings, CABAC           : Yes
Format settings, ReFrames        : 3 frames
Muxing mode                      : Container [email protected]
Codec ID                         : V_MPEG4/ISO/AVC
Duration                         : 3mn 8s
Bit rate                         : 3 555 Kbps
Width                            : 1 280 pixels
Height                           : 720 pixels
Display aspect ratio             : 16:9
Frame rate                       : 29.970 fps
Color space                      : YUV
Chroma subsampling               : 4:2:0
Bit depth                        : 8 bits
Scan type                        : Progressive
Bits/(Pixel*Frame)               : 0.129
Stream size                      : 79.8 MiB (88%)
Language                         : English

Audio
ID                               : 2
Format                           : AC-3
Format/Info                      : Audio Coding 3
Mode extension                   : CM (complete main)
Codec ID                         : A_AC3
Duration                         : 3mn 8s
Bit rate mode                    : Constant
Bit rate                         : 384 Kbps
Channel(s)                       : 6 channels
Channel positions                : Front: L C R, Side: L R, LFE
Sampling rate                    : 48.0 KHz
Video delay                      : 2ms
Stream size                      : 8.63 MiB (10%)



Code:
http://hotfile.com/dl/53381522/3b23abe/JDS_SS.rar.html
 
1 - 1 of 1 Posts
Top