Mixed Martial Arts Forum banner
1 - 2 of 2 Posts

·
Banned
Joined
·
973 Posts
Discussion Starter · #1 ·
MMAthletics.ep12-July.19th.2010.XviD-UPiNSMOKE

MMAthletics.ep12-July.19th.2010.XviD-UPiNSMOKE



Hosts Rachelle Leah and Jay Glazer take you behind the scenes of the world of MMA, introducing you to offseason NFL players and popular UFC fighters, as well as the gyms and training techniques these athletes are using. MMAthletics is your VIP pass for inside access to the Octagon.


Code:
http://i25.tinypic.com/2irqbmo.jpg
HOTFILE
Code:
http://hotfile.com/dl/56363569/b8508c2/MMAthletics.ep12-July.19th.2010.XviD-UPiNSMOKE.avi.html
 

·
Registered
Joined
·
203 Posts

Code:
General

Format                           : AVI
Format/Info                      : Audio Video Interleave
File size                        : 108 MiB
Duration                         : 18mn 40s
Overall bit rate                 : 805 Kbps


Video
ID                               : 0
Format                           : MPEG-4 Visual
Format profile                   : [email protected]
Format settings, BVOP            : No
Format settings, QPel            : No
Format settings, GMC             : No warppoints
Format settings, Matrix          : Default (H.263)
Codec ID                         : XVID
Codec ID/Hint                    : XviD
Duration                         : 18mn 40s
Bit rate                         : 697 Kbps
Width                            : 624 pixels
Height                           : 352 pixels
Display aspect ratio             : 16:9
Frame rate                       : 23.976 fps
Color space                      : YUV
Chroma subsampling               : 4:2:0
Bit depth                        : 8 bits
Scan type                        : Progressive
Bits/(Pixel*Frame)               : 0.132
Stream size                      : 93.1 MiB (87%)


Audio
ID                               : 1
Format                           : MPEG Audio
Format version                   : Version 1
Format profile                   : Layer 3
Mode                             : Joint stereo
Mode extension                   : MS Stereo
Codec ID                         : 55
Codec ID/Hint                    : MP3
Duration                         : 18mn 40s
Bit rate mode                    : Constant
Bit rate                         : 96.0 Kbps
Channel(s)                       : 2 channels
Sampling rate                    : 44.1 KHz
Stream size                      : 12.8 MiB (12%)


Code:
http://hotfile.com/dl/56382287/792f789/M_atl.avi.html
 
1 - 2 of 2 Posts
Top