Mixed Martial Arts Forum banner
1 - 1 of 1 Posts

·
Registered
Joined
·
203 Posts
Discussion Starter · #1 · (Edited)


Code:
General

Format                           : Matroska
File size                        : 135 MiB
Duration                         : 5mn 25s
Overall bit rate                 : 3 483 Kbps
Encoded date                     : UTC 2010-06-13 05:17:24
Writing application              : mkvmerge v3.2.0 ('Beginnings') built on Feb 12 2010 16:46:17
Writing library                  : libebml v0.7.9 + libmatroska v0.8.1

Video
ID                               : 1
Format                           : AVC
Format/Info                      : Advanced Video Codec
Format profile                   : [email protected]
Format settings, CABAC           : Yes
Format settings, ReFrames        : 3 frames
Muxing mode                      : Container [email protected]
Codec ID                         : V_MPEG4/ISO/AVC
Duration                         : 5mn 25s
Bit rate                         : 3 299 Kbps
Nominal bit rate                 : 3 361 Kbps
Width                            : 1 280 pixels
Height                           : 720 pixels
Display aspect ratio             : 16:9
Frame rate                       : 29.970 fps
Resolution                       : 8 bits
Colorimetry                      : 4:2:0
Scan type                        : Progressive
Bits/(Pixel*Frame)               : 0.119
Stream size                      : 128 MiB (95%)
Writing library                  : x264 core 80 r1376M 3feaec2


Audio
ID                               : 2
Format                           : MPEG Audio
Format version                   : Version 1
Format profile                   : Layer 3
Format_Settings_Mode             : Joint stereo
Format_Settings_ModeExtension    : MS Stereo
Codec ID                         : A_MPEG/L3
Codec ID/Hint                    : MP3
Duration                         : 5mn 25s
Bit rate mode                    : Variable
Bit rate                         : 114 Kbps
Nominal bit rate                 : 128 Kbps
Channel(s)                       : 2 channels
Sampling rate                    : 48.0 KHz
Stream size                      : 4.42 MiB (3%)




Code:
http://hotfile.com/dl/48092662/39fada2/Nis.rar.html

Do not worry I changed the name of the file.
 
1 - 1 of 1 Posts
This is an older thread, you may not receive a response, and could be reviving an old thread. Please consider creating a new thread.
Top