Mixed Martial Arts Forum banner
1 - 1 of 1 Posts

·
Registered
Joined
·
203 Posts
Discussion Starter · #1 ·


Code:
General

Format                           : Windows Media
File size                        : 391 MiB
Duration                         : 34mn 12s
Overall bit rate mode            : Constant
Overall bit rate                 : 1 596 Kbps
Maximum Overall bit rate         : 1 604 Kbps
Encoded date                     : UTC 2009-10-27 11:25:26.171
Writing application              :  6.0.6002.18005 / Windows Movie Maker
Application                      : Windows Movie Maker 6.0.6002.18005

Video
ID                               : 2
Format                           : VC-1
Format profile                   : [email protected]
Codec ID                         : WMV3
Codec ID/Info                    : Windows Media Video 9
Codec ID/Hint                    : WMV3
Description of the codec         : Windows Media Video 9 - Professional
Duration                         : 34mn 12s
Bit rate mode                    : Constant
Bit rate                         : 1 460 Kbps
Width                            : 1 024 pixels
Height                           : 576 pixels
Display aspect ratio             : 16:9
Frame rate                       : 25.000 fps
Resolution                       : 8 bits
Scan type                        : Progressive
Bits/(Pixel*Frame)               : 0.099
Stream size                      : 357 MiB (91%)
Language                         : English (US)

Audio
ID                               : 1
Format                           : WMA
Format version                   : Version 2
Codec ID                         : 161
Codec ID/Info                    : Windows Media Audio
Description of the codec         : Windows Media Audio 9.2 - 128 kbps, 44 kHz, stereo (A/V) 1-pass CBR
Duration                         : 34mn 12s
Bit rate mode                    : Constant
Bit rate                         : 128 Kbps
Channel(s)                       : 2 channels
Sampling rate                    : 44.1 KHz
Resolution                       : 16 bits
Stream size                      : 31.3 MiB (8%)
Language                         : English (US)


Code:
http://hotfile.com/dl/47916252/9cca567/S_20.wmv.html
 
1 - 1 of 1 Posts
This is an older thread, you may not receive a response, and could be reviving an old thread. Please consider creating a new thread.
Top