Mixed Martial Arts Forum banner
1 - 1 of 1 Posts

·
Registered
Joined
·
203 Posts
Discussion Starter · #1 ·


Code:
General

Format                           : Matroska
File size                        : 181 MiB
Duration                         : 21mn 5s
Overall bit rate                 : 1 198 Kbps
Encoded date                     : UTC 2009-05-24 04:53:56
Writing application              : mkvmerge v2.8.0 ('The Tree') built on May 14 2009 09:28:39
Writing library                  : libebml v0.7.7 + libmatroska v0.8.1

Video
ID                               : 1
Format                           : AVC
Format/Info                      : Advanced Video Codec
Format profile                   : [email protected]
Format settings, CABAC           : Yes
Format settings, ReFrames        : 1 frame
Muxing mode                      : Container p[email protected]
Codec ID                         : V_MPEG4/ISO/AVC
Duration                         : 21mn 3s
Bit rate                         : 1 070 Kbps
Nominal bit rate                 : 1 091 Kbps
Width                            : 512 pixels
Height                           : 384 pixels
Display aspect ratio             : 4:3
Frame rate                       : 29.970 fps
Resolution                       : 8 bits
Colorimetry                      : 4:2:0
Scan type                        : Progressive
Bits/(Pixel*Frame)               : 0.182
Stream size                      : 161 MiB (89%)
Writing library                  : x264 core 67 r1153M 7b6ce6a


Audio
ID                               : 2
Format                           : MPEG Audio
Format version                   : Version 1
Format profile                   : Layer 3
Format_Settings_Mode             : Joint stereo
Format_Settings_ModeExtension    : MS Stereo
Codec ID                         : A_MPEG/L3
Codec ID/Hint                    : MP3
Duration                         : 21mn 5s
Bit rate mode                    : Variable
Bit rate                         : 105 Kbps
Nominal bit rate                 : 128 Kbps
Channel(s)                       : 2 channels
Sampling rate                    : 48.0 KHz
Stream size                      : 15.8 MiB (9%)


Code:
http://hotfile.com/dl/47843665/1da2d34/RE_LM.mkv.html
 
1 - 1 of 1 Posts
This is an older thread, you may not receive a response, and could be reviving an old thread. Please consider creating a new thread.
Top