Mixed Martial Arts Forum banner
1 - 1 of 1 Posts

·
Registered
Joined
·
203 Posts
Discussion Starter · #1 ·
Great training video .Carwin and Lesnar training for UFC 116 .



Code:
General

Format                           : AVI
Format/Info                      : Audio Video Interleave
File size                        : 150 MiB
Duration                         : 9mn 30s
Overall bit rate                 : 2 206 Kbps

Video
ID                               : 0
Format                           : MPEG-4 Visual
Format settings, BVOP            : Yes
Format settings, QPel            : No
Format settings, GMC             : No warppoints
Format settings, Matrix          : Default (H.263)
Muxing mode                      : Packed bitstream
Codec ID                         : DX50
Codec ID/Hint                    : DivX 5
Duration                         : 9mn 30s
Bit rate                         : 2 066 Kbps
Width                            : 512 pixels
Height                           : 384 pixels
Display aspect ratio             : 4:3
Frame rate                       : 30.000 fps
Resolution                       : 8 bits
Colorimetry                      : 4:2:0
Scan type                        : Progressive
Bits/(Pixel*Frame)               : 0.350
Stream size                      : 140 MiB (94%)
Title                            : Video 
Writing library                  : DivX 2991

Audio
ID                               : 1
Format                           : MPEG Audio
Format version                   : Version 1
Format profile                   : Layer 3
Codec ID                         : 55
Codec ID/Hint                    : MP3
Duration                         : 9mn 30s
Bit rate mode                    : Constant
Bit rate                         : 128 Kbps
Channel(s)                       : 2 channels
Sampling rate                    : 48.0 KHz
Stream size                      : 8.70 MiB (6%)
Alignment                        : Split accross interleaves
Interleave, duration             : 33 ms (1.00 video frame)
Interleave, preload duration     : 500 ms



Code:
http://hotfile.com/dl/51043500/1e61212/U_D.avi.html
 
1 - 1 of 1 Posts
Top